<?xml version="1.0" standalone="no"?>
<!DOCTYPE svg PUBLIC "-//W3C//DTD SVG 1.1//EN" "http://www.w3.org/Graphics/SVG/1.1/DTD/svg11.dtd" >
<svg xmlns="http://www.w3.org/2000/svg" xmlns:xlink="http://www.w3.org/1999/xlink" version="1.1">
<metadata>
Created by FontForge 20190801 at Mon Nov 14 17:31:03 2011
 By Jimmy Wärting
Copyright (c) 2011 by Wolfgang Homola, distributed by TypeTogether. All rights reserved.
</metadata>
<defs>
<font id="Soleil-Regular" horiz-adv-x="550" >
  <font-face 
    font-family="Soleil"
    font-weight="400"
    font-stretch="normal"
    units-per-em="1000"
    panose-1="2 0 5 3 3 0 0 2 0 4"
    ascent="750"
    descent="-250"
    x-height="500"
    cap-height="700"
    bbox="-210 -328 1258 1081"
    underline-thickness="50"
    underline-position="-100"
    unicode-range="U+000D-FB06"
  />
<missing-glyph 
d="M298 126h-59v65h59v-65zM60 664h430v-664h-430v664zM116 611v-558h318v558h-318zM213 416v-5h-51v2q0 48 32.5 79.5t77.5 31.5q47 0 78.5 -31.5t31.5 -69.5q0 -34 -14.5 -58.5t-30.5 -35.5t-41 -22v-64h-54v93q42 14 65.5 32.5t23.5 52.5q0 23 -16.5 40t-42.5 17
q-27 0 -43 -17t-16 -45z" />
    <glyph glyph-name="ff" unicode="ff" horiz-adv-x="674" 
d="M366 740l-26 -76q-30 14 -62 14q-37 0 -58 -16q-26 -21 -26 -99v-63h115v-80h-115v-420h-91v420h-57v80h57v72q0 84 31 131q40 59 133 59q46 0 99 -22zM703 740l-26 -76q-30 14 -62 14q-37 0 -58 -16q-26 -21 -26 -99v-63h135v-80h-135v-420h-91v420h-57v80h57v72
q0 84 31 131q40 59 133 59q46 0 99 -22z" />
    <glyph glyph-name="fi" unicode="fi" horiz-adv-x="596" 
d="M329 420h-135v-420h-91v420h-57v80h57v72q0 84 31 131q40 59 133 59q35 0 74 -13l-14 -79q-24 8 -49 8q-37 0 -58 -16q-26 -21 -26 -99v-63h135v-80zM512 0h-91v500h91v-500zM512 598h-91v102h91v-102z" />
    <glyph glyph-name="fl" unicode="fl" horiz-adv-x="596" 
d="M329 420h-135v-420h-91v420h-57v80h57v72q0 84 31 131q40 59 133 59q35 0 74 -13l-14 -79q-24 8 -49 8q-37 0 -58 -16q-26 -21 -26 -99v-63h135v-80zM512 750v-750h-91v750h91z" />
    <glyph glyph-name="ffi" unicode="ffi" horiz-adv-x="933" 
d="M366 740l-26 -76q-30 14 -62 14q-37 0 -58 -16q-26 -21 -26 -99v-63h115v-80h-115v-420h-91v420h-57v80h57v72q0 84 31 131q40 59 133 59q46 0 99 -22zM666 420h-135v-420h-91v420h-57v80h57v72q0 84 31 131q40 59 133 59q35 0 74 -13l-14 -79q-24 8 -49 8q-37 0 -58 -16
q-26 -21 -26 -99v-63h135v-80zM849 0h-91v500h91v-500zM849 598h-91v102h91v-102z" />
    <glyph glyph-name="ffl" unicode="ffl" horiz-adv-x="933" 
d="M366 740l-26 -76q-30 14 -62 14q-37 0 -58 -16q-26 -21 -26 -99v-63h115v-80h-115v-420h-91v420h-57v80h57v72q0 84 31 131q40 59 133 59q46 0 99 -22zM666 420h-135v-420h-91v420h-57v80h57v72q0 84 31 131q40 59 133 59q35 0 74 -13l-14 -79q-24 8 -49 8q-37 0 -58 -16
q-26 -21 -26 -99v-63h135v-80zM849 750v-750h-91v750h91z" />
    <glyph glyph-name="f_k" unicode="fk" horiz-adv-x="851" 
d="M329 420h-135v-420h-91v420h-57v80h57v72q0 84 31 131q40 59 133 59q35 0 74 -13l-14 -79q-24 8 -49 8q-37 0 -58 -16q-26 -21 -26 -99v-63h135v-80zM845 0h-111l-143 224l-79 -92v-132h-91v750h91v-500l2 -1l202 251h112l-175 -204z" />
    <glyph glyph-name="f_b" unicode="fb" horiz-adv-x="963" 
d="M329 420h-135v-420h-91v420h-57v80h57v72q0 84 31 131q40 59 133 59q35 0 74 -13l-14 -79q-24 8 -49 8q-37 0 -58 -16q-26 -21 -26 -99v-63h135v-80zM421 750h91v-317q26 38 69 58.5t90 20.5q107 0 178.5 -76t71.5 -187q0 -104 -71 -182.5t-181 -78.5q-93 0 -157 66v-54
h-91v750zM512 333v-185q25 -36 65 -56t80 -20q81 0 126 54t45 125q0 73 -47 125t-122 52q-44 0 -86.5 -25.5t-60.5 -69.5z" />
    <glyph glyph-name="f_h" unicode="fh" horiz-adv-x="943" 
d="M329 420h-135v-420h-91v420h-57v80h57v72q0 84 31 131q40 59 133 59q35 0 74 -13l-14 -79q-24 8 -49 8q-37 0 -58 -16q-26 -21 -26 -99v-63h135v-80zM512 750v-332q59 94 163 94q98 0 145 -63q45 -61 45 -189v-260h-91v250q0 99 -26 138q-27 40 -87 40q-42 0 -81.5 -26.5
t-67.5 -69.5v-332h-91v750h91z" />
    <glyph glyph-name="f_t" unicode="ft" horiz-adv-x="683" 
d="M366 740l-26 -76q-30 14 -62 14q-37 0 -58 -16q-26 -21 -26 -99v-63h125v-80h-125v-420h-91v420h-57v80h57v72q0 84 31 131q40 59 133 59q46 0 99 -22zM657 420h-140v-226q0 -24 1 -39q2 -42 18 -63t52 -21q28 0 56 14l25 -73q-42 -22 -93 -22q-99 0 -134 78
q-16 37 -16 104v248h-57v80h57v120h91v-120h140v-80z" />
    <glyph glyph-name="f_j" unicode="fj" horiz-adv-x="604" 
d="M329 420h-135v-420h-91v420h-57v80h57v72q0 84 31 131q40 59 133 59q35 0 74 -13l-14 -79q-24 8 -49 8q-37 0 -58 -16q-26 -21 -26 -99v-63h135v-80zM520 598h-91v102h91v-102zM520 500v-544q0 -59 -14 -95q-32 -83 -133 -83q-56 0 -96 22l26 74q26 -14 56 -14
q44 0 57 28t13 86v526h91z" />
    <glyph glyph-name="f_f_j" unicode="ffj" horiz-adv-x="941" 
d="M366 740l-26 -76q-30 14 -62 14q-37 0 -58 -16q-26 -21 -26 -99v-63h115v-80h-115v-420h-91v420h-57v80h57v72q0 84 31 131q40 59 133 59q46 0 99 -22zM666 420h-135v-420h-91v420h-57v80h57v72q0 84 31 131q40 59 133 59q35 0 74 -13l-14 -79q-24 8 -49 8q-37 0 -58 -16
q-26 -21 -26 -99v-63h135v-80zM857 598h-91v102h91v-102zM857 500v-544q0 -59 -14 -95q-32 -83 -133 -83q-56 0 -96 22l26 74q26 -14 56 -14q44 0 57 28t13 86v526h91z" />
    <glyph glyph-name="f_f_k" unicode="ffk" horiz-adv-x="1188" 
d="M366 740l-26 -76q-30 14 -62 14q-37 0 -58 -16q-26 -21 -26 -99v-63h115v-80h-115v-420h-91v420h-57v80h57v72q0 84 31 131q40 59 133 59q46 0 99 -22zM666 420h-135v-420h-91v420h-57v80h57v72q0 84 31 131q40 59 133 59q35 0 74 -13l-14 -79q-24 8 -49 8q-37 0 -58 -16
q-26 -21 -26 -99v-63h135v-80zM1182 0h-111l-143 224l-79 -92v-132h-91v750h91v-500l2 -1l202 251h112l-175 -204z" />
    <glyph glyph-name="f_f_b" unicode="ffb" horiz-adv-x="1300" 
d="M366 740l-26 -76q-30 14 -62 14q-37 0 -58 -16q-26 -21 -26 -99v-63h115v-80h-115v-420h-91v420h-57v80h57v72q0 84 31 131q40 59 133 59q46 0 99 -22zM666 420h-135v-420h-91v420h-57v80h57v72q0 84 31 131q40 59 133 59q35 0 74 -13l-14 -79q-24 8 -49 8q-37 0 -58 -16
q-26 -21 -26 -99v-63h135v-80zM758 750h91v-317q26 38 69 58.5t90 20.5q107 0 178.5 -76t71.5 -187q0 -104 -71 -182.5t-181 -78.5q-93 0 -157 66v-54h-91v750zM849 333v-185q25 -36 65 -56t80 -20q81 0 126 54t45 125q0 73 -47 125t-122 52q-44 0 -86.5 -25.5t-60.5 -69.5z
" />
    <glyph glyph-name="f_f_h" unicode="ffh" horiz-adv-x="1280" 
d="M366 740l-26 -76q-30 14 -62 14q-37 0 -58 -16q-26 -21 -26 -99v-63h115v-80h-115v-420h-91v420h-57v80h57v72q0 84 31 131q40 59 133 59q46 0 99 -22zM666 420h-135v-420h-91v420h-57v80h57v72q0 84 31 131q40 59 133 59q35 0 74 -13l-14 -79q-24 8 -49 8q-37 0 -58 -16
q-26 -21 -26 -99v-63h135v-80zM849 750v-332q59 94 163 94q98 0 145 -63q45 -61 45 -189v-260h-91v250q0 99 -26 138q-27 40 -87 40q-42 0 -81.5 -26.5t-67.5 -69.5v-332h-91v750h91z" />
    <glyph glyph-name="f_f_t" unicode="fft" horiz-adv-x="1020" 
d="M366 740l-26 -76q-30 14 -62 14q-37 0 -58 -16q-26 -21 -26 -99v-63h115v-80h-115v-420h-91v420h-57v80h57v72q0 84 31 131q40 59 133 59q46 0 99 -22zM703 740l-26 -76q-30 14 -62 14q-37 0 -58 -16q-26 -21 -26 -99v-63h125v-80h-125v-420h-91v420h-57v80h57v72
q0 84 31 131q40 59 133 59q46 0 99 -22zM994 420h-140v-226q0 -24 1 -39q2 -42 18 -63t52 -21q28 0 56 14l25 -73q-42 -22 -93 -22q-99 0 -134 78q-16 37 -16 104v248h-57v80h57v120h91v-120h140v-80z" />
    <glyph glyph-name="f_iacute" unicode="f&#xed;" horiz-adv-x="596" 
d="M329 420h-135v-420h-91v420h-57v80h57v72q0 84 31 131q40 59 133 59q35 0 74 -13l-14 -79q-24 8 -49 8q-37 0 -58 -16q-26 -21 -26 -99v-63h135v-80zM611 732l-138 -169l-62 48l133 171zM512 0h-91v500h91v-500z" />
    <glyph glyph-name="t_t" unicode="tt" horiz-adv-x="692" 
d="M666 420h-140v-226q0 -24 1 -39q2 -42 18 -63t52 -21q28 0 56 14l25 -73q-42 -22 -93 -22q-99 0 -134 78q-16 37 -16 104v248h-67v80h67v120h91v-120h140v-80zM320 420h-140v-226q0 -24 1 -39q2 -42 18 -63t52 -21q28 0 56 14l25 -73q-42 -22 -93 -22q-99 0 -134 78
q-16 37 -16 104v248h-67v80h67v120h91v-120h140v-80z" />
    <glyph glyph-name=".notdef" 
d="M298 126h-59v65h59v-65zM60 664h430v-664h-430v664zM116 611v-558h318v558h-318zM213 416v-5h-51v2q0 48 32.5 79.5t77.5 31.5q47 0 78.5 -31.5t31.5 -69.5q0 -34 -14.5 -58.5t-30.5 -35.5t-41 -22v-64h-54v93q42 14 65.5 32.5t23.5 52.5q0 23 -16.5 40t-42.5 17
q-27 0 -43 -17t-16 -45z" />
    <glyph glyph-name=".null" horiz-adv-x="0" 
 />
    <glyph glyph-name="nonmarkingreturn" horiz-adv-x="333" 
 />
    <glyph glyph-name="CR" unicode="&#xd;" horiz-adv-x="500" 
 />
    <glyph glyph-name="space" unicode=" " horiz-adv-x="250" 
 />
    <glyph glyph-name="exclam" unicode="!" horiz-adv-x="317" 
d="M212 700v-111l-9 -379h-89l-9 379v111h107zM211 0h-105v116h105v-116z" />
    <glyph glyph-name="quotedbl" unicode="&#x22;" horiz-adv-x="477" 
d="M170 435h-81l-9 265h99zM388 435h-81l-9 265h99z" />
    <glyph glyph-name="numbersign" unicode="#" horiz-adv-x="720" 
d="M65 263h134l24 138h-90v74h102l33 189h81l-33 -189h130l33 189h81l-33 -189h128v-74h-140l-24 -138h96v-74h-108l-32 -189h-81l32 189h-130l-32 -189h-81l32 189h-122v74zM304 401l-24 -138h130l24 138h-130z" />
    <glyph glyph-name="dollar" unicode="$" 
d="M30 88l65 61q78 -80 171 -80q58 0 100.5 29t42.5 87q0 22 -9.5 40.5t-20.5 29.5t-36 23.5t-39 18t-47 17.5q-35 13 -54.5 21t-48 24.5t-44 34t-27 45.5t-11.5 63q0 72 50 119.5t129 53.5v95h64v-97q85 -9 164 -65l-57 -67q-59 53 -144 53q-46 0 -81 -23.5t-35 -68.5
q0 -17 8.5 -32t18.5 -24.5t32.5 -20.5t36.5 -16.5t44 -15.5q38 -13 58 -21t52 -26t48.5 -36.5t29.5 -48t13 -66.5q0 -86 -54 -139t-139 -65v-97h-64v94q-116 4 -216 100z" />
    <glyph glyph-name="percent" unicode="%" horiz-adv-x="850" 
d="M218 706q67 0 113 -46.5t46 -113.5q0 -66 -46 -112.5t-113 -46.5t-113.5 46.5t-46.5 112.5q0 67 46.5 113.5t113.5 46.5zM219 635q-37 0 -61.5 -25t-24.5 -63t24.5 -63.5t61.5 -25.5q35 0 59 25.5t24 63.5q0 37 -24 62.5t-59 25.5zM633 313q67 0 113 -46.5t46 -113.5
q0 -66 -46 -112.5t-113 -46.5t-113.5 46.5t-46.5 112.5q0 67 46.5 113.5t113.5 46.5zM634 242q-37 0 -61.5 -25t-24.5 -63t24.5 -63.5t61.5 -25.5q35 0 59 25.5t24 63.5q0 37 -24 62.5t-59 25.5zM648 712l55 -40l-497 -684l-55 40z" />
    <glyph glyph-name="ampersand" unicode="&#x26;" horiz-adv-x="680" 
d="M695 45l-56 -63l-124 110q-77 -104 -220 -104q-92 0 -161.5 65.5t-69.5 151.5q0 62 32 111.5t86 78.5q-67 72 -67 146q0 73 60.5 122t137.5 49q64 0 114 -34t66 -92l-84 -24q-18 66 -100 66q-44 0 -73.5 -25.5t-29.5 -66.5q0 -37 24.5 -68.5t82.5 -82.5l-54 -64l-18 16
q-39 -19 -62.5 -53t-23.5 -78q0 -56 44.5 -95t106.5 -39q96 0 148 74l-81 73l55 63z" />
    <glyph glyph-name="quotesingle" unicode="'" horiz-adv-x="259" 
d="M170 435h-81l-9 265h99z" />
    <glyph glyph-name="parenleft" unicode="(" horiz-adv-x="345" 
d="M315 781l38 -65q-209 -137 -209 -412t209 -412l-38 -65q-265 165 -265 477t265 477z" />
    <glyph glyph-name="parenright" unicode=")" horiz-adv-x="345" 
d="M-8 716l38 65q265 -165 265 -477t-265 -477l-38 65q209 137 209 412t-209 412z" />
    <glyph glyph-name="asterisk" unicode="*" horiz-adv-x="490" 
d="M420 553l-119 -29l84 -97l-70 -50l-70 113l-70 -113l-70 50l83 97l-118 29l26 82l116 -48l-10 125h86l-9 -125l115 48z" />
    <glyph glyph-name="plus" unicode="+" 
d="M314 561v-211h211v-78h-211v-210h-78v210h-211v78h211v211h78z" />
    <glyph glyph-name="comma" unicode="," horiz-adv-x="250" 
d="M190 116l-66 -250h-87l51 250h102z" />
    <glyph glyph-name="hyphen" unicode="-" horiz-adv-x="460" 
d="M360 238h-260v82h260v-82z" />
    <glyph glyph-name="period" unicode="." horiz-adv-x="250" 
d="M177 0h-105v116h105v-116z" />
    <glyph glyph-name="slash" unicode="/" horiz-adv-x="363" 
d="M363 735l-292 -788l-71 27l292 788z" />
    <glyph glyph-name="zero" unicode="0" 
d="M275 676q112 0 173.5 -91.5t61.5 -252.5t-61.5 -252.5t-173.5 -91.5t-173.5 91.5t-61.5 252.5t61.5 252.5t173.5 91.5zM275 590q-67 0 -103 -65t-36 -193t36 -193t103 -65t103 65t36 193t-36 193t-103 65z" />
    <glyph glyph-name="one" unicode="1" horiz-adv-x="344" 
d="M249 0h-94v550q-13 -7 -100 -44v88q82 41 133 70h61v-664z" />
    <glyph glyph-name="two" unicode="2" horiz-adv-x="509" 
d="M480 0h-422v85q166 174 234 274q61 88 61 141q0 42 -33 67t-76 25q-42 0 -73 -29t-32 -74l-93 19q6 73 67 120.5t135 47.5q81 0 141.5 -49.5t60.5 -126.5q0 -82 -71 -183q-74 -104 -195 -233h296v-84z" />
    <glyph glyph-name="three" unicode="3" horiz-adv-x="519" 
d="M154 292v96q63 2 95 10q40 11 64.5 37.5t24.5 61.5q0 41 -31 68t-80 27q-38 0 -67.5 -19t-41.5 -53l-80 33q20 55 71 89t120 34q92 0 148.5 -48.5t56.5 -129.5q0 -45 -22.5 -83t-60.5 -58q52 -18 84.5 -62.5t32.5 -101.5q0 -94 -64 -149.5t-158 -55.5q-66 0 -124 28.5
t-87 82.5l74 41q40 -68 130 -68q56 0 94.5 29t38.5 84q0 50 -41 82t-100 32q-46 0 -77 -7z" />
    <glyph glyph-name="four" unicode="4" horiz-adv-x="538" 
d="M418 0h-92v167h-300v101q104 135 295 396h97v-413h99v-84h-99v-167zM126 251h200v281q-78 -114 -200 -281z" />
    <glyph glyph-name="five" unicode="5" horiz-adv-x="499" 
d="M433 664v-84h-253q-7 -142 -12 -186q41 19 98 19q83 0 143 -59t60 -145q0 -95 -62.5 -158t-158.5 -63q-63 0 -123.5 30.5t-87.5 80.5l75 42q38 -69 124 -69q63 0 100 38.5t37 95.5q0 55 -38 89t-96 34q-62 0 -103 -42l-68 37q11 106 23 340h342z" />
    <glyph glyph-name="six" unicode="6" horiz-adv-x="534" 
d="M367 701l38 -84q-101 -46 -166 -106.5t-90 -151.5q61 61 150 61q86 0 140.5 -62t54.5 -152q0 -93 -60 -155.5t-151 -62.5q-110 0 -176.5 78t-66.5 187q0 152 92.5 271t234.5 177zM279 336q-45 0 -84 -22.5t-60 -61.5q0 -76 34.5 -128t105.5 -52q56 0 89.5 39t33.5 97
q0 57 -32 92.5t-87 35.5z" />
    <glyph glyph-name="seven" unicode="7" horiz-adv-x="452" 
d="M432 664v-69q-145 -303 -276 -617l-87 39q40 94 87 197t108 230t64 134h-318v86h422z" />
    <glyph glyph-name="eight" unicode="8" horiz-adv-x="562" 
d="M281 -12q-99 0 -162 56t-63 139q0 111 103 167q-83 49 -83 144q0 77 57 129.5t148 52.5t148 -52.5t57 -129.5q0 -95 -83 -144q103 -56 103 -167q0 -83 -63 -139t-162 -56zM281 303q-53 0 -91 -34t-38 -82q0 -50 37.5 -82.5t91.5 -32.5t91.5 32.5t37.5 82.5q0 48 -38 82
t-91 34zM281 592q-47 0 -79 -29t-32 -73q0 -43 32.5 -73t78.5 -30t78.5 30t32.5 73q0 44 -32 73t-79 29z" />
    <glyph glyph-name="nine" unicode="9" horiz-adv-x="534" 
d="M167 -37l-38 84q101 46 166 106.5t90 151.5q-61 -61 -150 -61q-86 0 -140.5 62t-54.5 152q0 93 60 155.5t151 62.5q110 0 176.5 -78t66.5 -187q0 -152 -92.5 -271t-234.5 -177zM255 328q45 0 84 22.5t60 61.5q0 76 -34.5 128t-105.5 52q-56 0 -89.5 -39t-33.5 -97
q0 -57 32 -92.5t87 -35.5z" />
    <glyph glyph-name="colon" unicode=":" horiz-adv-x="250" 
d="M177 384h-105v116h105v-116zM177 0h-105v116h105v-116z" />
    <glyph glyph-name="semicolon" unicode=";" horiz-adv-x="250" 
d="M190 116l-66 -250h-87l51 250h102zM192 384h-105v116h105v-116z" />
    <glyph glyph-name="less" unicode="&#x3c;" 
d="M24 272v78l501 200v-78l-404 -161l404 -161v-78z" />
    <glyph glyph-name="equal" unicode="=" 
d="M54 428h441v-78h-441v78zM54 272h441v-78h-441v78z" />
    <glyph glyph-name="greater" unicode="&#x3e;" 
d="M526 350v-78l-501 -200v78l404 161l-404 161v78z" />
    <glyph glyph-name="question" unicode="?" horiz-adv-x="541" 
d="M314 210h-97v166q36 12 59.5 22.5t49 28.5t38.5 43t13 58q0 42 -30 72t-75 30q-49 0 -78 -30t-29 -82v-8h-91v4q0 86 58.5 142t139.5 56q83 0 139.5 -56t56.5 -125q0 -84 -41 -129t-113 -78v-114zM318 0h-105v116h105v-116z" />
    <glyph glyph-name="at" unicode="@" horiz-adv-x="800" 
d="M546 -103q-71 -36 -151 -36q-142 0 -241 101t-99 243q0 144 99 244.5t241 100.5q156 0 253.5 -91t97.5 -234q0 -89 -39 -150.5t-114 -61.5q-72 0 -97 81q-17 -32 -48.5 -49t-67.5 -17q-71 0 -117 49t-46 123q0 70 45 121.5t120 51.5q57 0 103 -43v32h71v-154
q0 -52 6.5 -81t15.5 -37t23 -8q33 0 50 42t17 102q0 113 -74 180.5t-198 67.5q-111 0 -187 -77.5t-76 -190.5t76 -191t187 -78q63 0 125 30zM485 175v72q-19 27 -45 43t-50 16q-50 0 -75 -31.5t-25 -75.5q0 -43 26.5 -74t71.5 -31q26 0 54.5 22t42.5 59z" />
    <glyph glyph-name="A" unicode="A" horiz-adv-x="653" 
d="M638 0h-111l-55 149h-298l-54 -149h-105l271 700h84zM323 554l-117 -319h235l-117 319h-1z" />
    <glyph glyph-name="B" unicode="B" horiz-adv-x="611" 
d="M95 0v700h167q118 0 186 -44q74 -48 74 -145q0 -103 -107 -145q136 -41 136 -167q0 -59 -30.5 -103.5t-83.5 -67.5q-67 -28 -184 -28h-158zM449 198q0 54 -38 86t-108 32h-112v-232h53q102 0 148 21q57 27 57 93zM426 506q0 58 -40 84q-41 26 -147 26h-48v-216h67
q168 0 168 106z" />
    <glyph glyph-name="C" unicode="C" horiz-adv-x="674" 
d="M642 52q-94 -64 -206 -64q-160 0 -268 100t-108 262q0 154 109.5 258t266.5 104q101 0 188 -54l-45 -74q-68 42 -143 42q-119 0 -196.5 -78t-77.5 -198q0 -126 76 -201t198 -75q82 0 155 49z" />
    <glyph glyph-name="D" unicode="D" horiz-adv-x="720" 
d="M95 0v700h189q55 0 107.5 -11.5t101.5 -38t86 -65.5t59 -99t22 -133q0 -93 -33 -163.5t-89.5 -110.5t-122.5 -59.5t-141 -19.5h-179zM558 344q0 131 -76.5 200.5t-215.5 69.5h-75v-528h33q161 0 247.5 59.5t86.5 198.5z" />
    <glyph glyph-name="E" unicode="E" horiz-adv-x="580" 
d="M515 0h-420v700h420v-86h-324v-210h324v-86h-324v-232h324v-86z" />
    <glyph glyph-name="F" unicode="F" horiz-adv-x="495" 
d="M450 299h-259v-299h-96v700h355v-86h-259v-229h259v-86z" />
    <glyph glyph-name="G" unicode="G" horiz-adv-x="803" 
d="M627 302h-178v86h274v-266q-50 -64 -125.5 -99t-161.5 -35q-163 0 -269.5 100.5t-106.5 261.5q0 154 109.5 258t266.5 104q79 0 149.5 -33t121.5 -91l-68 -56q-38 43 -91.5 68.5t-111.5 25.5q-119 0 -196.5 -78t-77.5 -198q0 -126 76 -201t198 -75q115 0 191 73v155z" />
    <glyph glyph-name="H" unicode="H" horiz-adv-x="752" 
d="M657 0h-96v318h-370v-318h-96v700h96v-296h370v296h96v-700z" />
    <glyph glyph-name="I" unicode="I" horiz-adv-x="286" 
d="M191 0h-96v700h96v-700z" />
    <glyph glyph-name="J" unicode="J" horiz-adv-x="341" 
d="M251 700v-523q0 -86 -32 -133q-39 -56 -134 -56q-48 0 -101 22l26 78q30 -14 61 -14q50 0 67 24q17 22 17 92v510h96z" />
    <glyph glyph-name="K" unicode="K" horiz-adv-x="621" 
d="M602 700l-233 -276l247 -424h-112l-200 346l-113 -135v-211h-96v700h96v-357l294 357h117z" />
    <glyph glyph-name="L" unicode="L" horiz-adv-x="500" 
d="M495 0h-400v700h96v-614h304v-86z" />
    <glyph glyph-name="M" unicode="M" horiz-adv-x="923" 
d="M732 591l-239 -591h-67l-235 591v-591h-96v700h152l213 -547l216 547h152v-700h-96v591z" />
    <glyph glyph-name="N" unicode="N" horiz-adv-x="755" 
d="M660 0h-85l-384 522v-522h-96v700h84l385 -522v522h96v-700z" />
    <glyph glyph-name="O" unicode="O" horiz-adv-x="840" 
d="M678 350q0 117 -73.5 196.5t-184.5 79.5t-184.5 -79.5t-73.5 -196.5t73.5 -196.5t184.5 -79.5t184.5 79.5t73.5 196.5zM780 350q0 -151 -104 -256.5t-256 -105.5t-256 105.5t-104 256.5t104 256.5t256 105.5t256 -105.5t104 -256.5z" />
    <glyph glyph-name="P" unicode="P" horiz-adv-x="581" 
d="M551 491q0 -56 -22 -98t-59 -66t-79 -35.5t-87 -11.5h-113v-280h-96v700h209q45 0 87 -11.5t78.5 -35t59 -65.5t22.5 -97zM449 488q0 58 -41 92t-109 34h-108v-248h88q170 0 170 122z" />
    <glyph glyph-name="Q" unicode="Q" horiz-adv-x="840" 
d="M780 350q0 -155 -107 -259l95 -94l-61 -61l-103 101q-84 -49 -184 -49q-152 0 -256 105.5t-104 256.5t104 256.5t256 105.5t256 -105.5t104 -256.5zM678 350q0 117 -73.5 196.5t-184.5 79.5t-184.5 -79.5t-73.5 -196.5t73.5 -196.5t184.5 -79.5q66 0 119 29l-98 98l61 61
l105 -105q71 77 71 193z" />
    <glyph glyph-name="R" unicode="R" horiz-adv-x="613" 
d="M593 0h-120l-210 296h-72v-296h-96v700h208q58 0 110 -19t90.5 -66.5t38.5 -115.5q0 -83 -49.5 -132.5t-121.5 -64.5zM440 496q0 53 -39 85.5t-103 32.5h-107v-232h87q74 0 118 28.5t44 85.5z" />
    <glyph glyph-name="S" unicode="S" horiz-adv-x="609" 
d="M458 570q-26 24 -66.5 40t-80.5 16q-57 0 -91 -25.5t-34 -71.5q0 -18 9 -33t19 -24.5t34 -20.5t38 -16.5t46 -16.5q47 -17 76.5 -30.5t65 -38.5t53 -60.5t17.5 -82.5q0 -56 -23 -100t-60 -68.5t-79 -37t-84 -12.5q-147 0 -253 105l68 64q48 -47 90 -65t96 -18
q60 0 101.5 30.5t41.5 90.5q0 28 -11.5 48.5t-37.5 36.5t-47 24.5t-60 22.5q-42 15 -72 29t-61 36.5t-47.5 54.5t-16.5 72q0 94 60 143.5t151 49.5q122 0 217 -72z" />
    <glyph glyph-name="T" unicode="T" horiz-adv-x="488" 
d="M468 614h-176v-614h-96v614h-176v86h448v-86z" />
    <glyph glyph-name="U" unicode="U" horiz-adv-x="722" 
d="M632 700v-371q0 -169 -66 -255t-207 -86q-269 0 -269 341v371h96v-396q0 -114 46 -172t129 -58t129 58t46 172v396h96z" />
    <glyph glyph-name="V" unicode="V" horiz-adv-x="633" 
d="M628 700l-271 -700h-84l-268 700h111l203 -554h1l203 554h105z" />
    <glyph glyph-name="W" unicode="W" horiz-adv-x="886" 
d="M490 700l140 -528h2l147 528h102l-200 -700h-96l-140 533h-2l-152 -533h-94l-192 700h106l140 -528h2l147 528h90z" />
    <glyph glyph-name="X" unicode="X" horiz-adv-x="651" 
d="M642 700l-254 -346l258 -354h-121l-203 277l-196 -277h-121l257 356l-249 344h123l194 -269l193 269h119z" />
    <glyph glyph-name="Y" unicode="Y" horiz-adv-x="555" 
d="M324 0h-96v304l-223 396h119l156 -294h3l155 294h112l-226 -401v-299z" />
    <glyph glyph-name="Z" unicode="Z" horiz-adv-x="547" 
d="M502 648l-329 -562h354v-86h-487v51l331 563h-323v86h454v-52z" />
    <glyph glyph-name="bracketleft" unicode="[" horiz-adv-x="311" 
d="M301 -170h-211v920h211v-77h-129v-766h129v-77z" />
    <glyph glyph-name="backslash" unicode="\" horiz-adv-x="363" 
d="M363 -26l-71 -27l-292 788l71 27z" />
    <glyph glyph-name="bracketright" unicode="]" horiz-adv-x="311" 
d="M221 -170h-211v77h129v766h-129v77h211v-920z" />
    <glyph glyph-name="asciicircum" unicode="^" 
d="M474 350h-78l-121 254l-121 -254h-78l151 331h96z" />
    <glyph glyph-name="underscore" unicode="_" 
d="M550 -235h-550v63h550v-63z" />
    <glyph glyph-name="grave" unicode="`" horiz-adv-x="360" 
d="M191 566l-134 160l66 51l123 -169z" />
    <glyph glyph-name="a" unicode="a" horiz-adv-x="546" 
d="M468 0h-87v53q-58 -65 -150 -65q-75 0 -126 38t-51 114q0 60 34 99t81.5 53t107.5 14q47 0 100 -11v18q0 120 -118 120q-79 0 -159 -44l-27 76q98 47 197 47q105 0 151.5 -53.5t46.5 -154.5v-304zM377 124v103q-46 10 -90 10q-144 0 -144 -90q0 -43 27.5 -63t71.5 -20
q64 0 135 60z" />
    <glyph glyph-name="b" unicode="b" horiz-adv-x="626" 
d="M84 750h91v-317q26 38 69 58.5t90 20.5q107 0 178.5 -76t71.5 -187q0 -104 -71 -182.5t-181 -78.5q-93 0 -157 66v-54h-91v750zM175 333v-185q25 -36 65 -56t80 -20q81 0 126 54t45 125q0 73 -47 125t-122 52q-44 0 -86.5 -25.5t-60.5 -69.5z" />
    <glyph glyph-name="c" unicode="c" horiz-adv-x="475" 
d="M406 107l45 -70q-60 -49 -153 -49q-109 0 -182.5 73t-73.5 189q0 110 76 186t185 76q77 0 141 -43l-43 -75q-45 34 -102 34q-68 0 -116 -52t-48 -126q0 -79 48.5 -128.5t116.5 -49.5q59 0 106 35z" />
    <glyph glyph-name="d" unicode="d" horiz-adv-x="626" 
d="M292 -12q-107 0 -178.5 76t-71.5 186q0 104 70.5 183t181.5 79q92 0 157 -67v305h91v-750h-91v67q-26 -38 -69 -58.5t-90 -20.5zM304 72q43 0 85.5 25.5t61.5 68.5v186q-25 36 -65 56t-80 20q-82 0 -126.5 -54t-44.5 -126t47 -124t122 -52z" />
    <glyph glyph-name="e" unicode="e" horiz-adv-x="560" 
d="M514 227h-381q5 -68 48.5 -114.5t112.5 -46.5q106 0 149 81l66 -42q-73 -117 -219 -117q-116 0 -182 74t-66 188q0 111 71.5 186.5t176.5 75.5q99 0 163.5 -66t64.5 -167q0 -26 -4 -52zM291 434q-58 0 -97.5 -37.5t-53.5 -96.5h284q-3 55 -40.5 94.5t-92.5 39.5z" />
    <glyph glyph-name="f" unicode="f" horiz-adv-x="337" 
d="M366 740l-26 -76q-30 14 -62 14q-37 0 -58 -16q-26 -21 -26 -99v-63h135v-80h-135v-420h-91v420h-57v80h57v72q0 84 31 131q40 59 133 59q46 0 99 -22z" />
    <glyph glyph-name="g" unicode="g" horiz-adv-x="620" 
d="M542 500v-472q0 -80 -26 -131q-62 -119 -226 -119q-131 0 -221 66l35 78q36 -26 87 -43t97 -17q71 0 117 36.5t46 111.5v69q-26 -38 -69.5 -58.5t-90.5 -20.5q-106 0 -177.5 74t-71.5 182q0 103 70.5 179.5t181.5 76.5q92 0 157 -67v55h91zM451 177v175q-25 36 -65 56
t-80 20q-82 0 -126.5 -52t-44.5 -122t47 -120t121 -50q43 0 86 25t62 68z" />
    <glyph glyph-name="h" unicode="h" horiz-adv-x="606" 
d="M175 750v-332q59 94 163 94q98 0 145 -63q45 -61 45 -189v-260h-91v250q0 99 -26 138q-27 40 -87 40q-42 0 -81.5 -26.5t-67.5 -69.5v-332h-91v750h91z" />
    <glyph glyph-name="i" unicode="i" horiz-adv-x="259" 
d="M175 0h-91v500h91v-500zM175 598h-91v102h91v-102z" />
    <glyph glyph-name="j" unicode="j" horiz-adv-x="267" 
d="M183 598h-91v102h91v-102zM183 500v-544q0 -59 -14 -95q-32 -83 -133 -83q-56 0 -96 22l26 74q26 -14 56 -14q44 0 57 28t13 86v526h91z" />
    <glyph glyph-name="k" unicode="k" horiz-adv-x="514" 
d="M508 0h-111l-143 224l-79 -92v-132h-91v750h91v-500l2 -1l202 251h112l-175 -204z" />
    <glyph glyph-name="l" unicode="l" horiz-adv-x="259" 
d="M175 750v-750h-91v750h91z" />
    <glyph glyph-name="m" unicode="m" horiz-adv-x="919" 
d="M841 0h-91v250q0 100 -24 138q-27 40 -86 40q-35 0 -72.5 -23t-65.5 -60q6 -37 6 -85v-260h-91v250q0 105 -27 143q-25 35 -77 35q-36 0 -73.5 -27t-64.5 -65v-336h-91v500h91v-76q28 40 71 64t86 24q94 0 139 -69q5 -7 12 -23q65 92 174 92q93 0 138 -59q46 -60 46 -193
v-260z" />
    <glyph glyph-name="n" unicode="n" horiz-adv-x="606" 
d="M84 500h91v-82q59 94 163 94q98 0 145 -63q45 -61 45 -189v-260h-91v250q0 99 -26 138q-27 40 -87 40q-42 0 -81.5 -26.5t-67.5 -69.5v-332h-91v500z" />
    <glyph glyph-name="o" unicode="o" horiz-adv-x="594" 
d="M297 512q109 0 182 -76t73 -186t-73 -186t-182 -76t-182 76t-73 186t73 186t182 76zM459 250q0 74 -46 126t-116 52t-116 -52t-46 -126t46 -126t116 -52t116 52t46 126z" />
    <glyph glyph-name="p" unicode="p" horiz-adv-x="626" 
d="M84 500h91v-67q26 38 69 58.5t90 20.5q107 0 178.5 -76t71.5 -187q0 -104 -71 -182.5t-181 -78.5q-93 0 -157 66v-304h-91v750zM175 333v-185q25 -36 65 -56t80 -20q81 0 126 54t45 125q0 73 -47 125t-122 52q-44 0 -86.5 -25.5t-60.5 -69.5z" />
    <glyph glyph-name="q" unicode="q" horiz-adv-x="626" 
d="M542 500v-750h-91v317q-26 -38 -69 -58.5t-90 -20.5q-107 0 -178.5 76t-71.5 186q0 104 70.5 183t181.5 79q92 0 157 -67v55h91zM451 166v186q-25 36 -65 56t-80 20q-82 0 -126.5 -54t-44.5 -126t47 -124t122 -52q43 0 85.5 25.5t61.5 68.5z" />
    <glyph glyph-name="r" unicode="r" horiz-adv-x="357" 
d="M175 500v-83q53 95 129 95q26 0 54 -6l-17 -97q-21 10 -47 10q-71 0 -119 -84v-335h-91v500h91z" />
    <glyph glyph-name="s" unicode="s" horiz-adv-x="451" 
d="M382 457l-54 -58q-43 37 -99 37q-34 0 -54.5 -18t-20.5 -48q0 -18 16 -33t32 -22.5t48 -20.5q30 -12 51 -22.5t45.5 -28t37 -42.5t12.5 -56q0 -79 -52 -118t-129 -39q-112 0 -172 78l64 51q50 -53 109 -53q39 0 64.5 20t25.5 57q0 18 -15.5 33.5t-31.5 23t-49 20.5
q-35 14 -52 22t-42.5 25.5t-37 41.5t-11.5 56q0 72 47 110.5t114 38.5q93 0 154 -55z" />
    <glyph glyph-name="t" unicode="t" horiz-adv-x="346" 
d="M320 420h-140v-226q0 -24 1 -39q2 -42 18 -63t52 -21q28 0 56 14l25 -73q-42 -22 -93 -22q-99 0 -134 78q-16 37 -16 104v248h-67v80h67v120h91v-120h140v-80z" />
    <glyph glyph-name="u" unicode="u" horiz-adv-x="606" 
d="M431 0v82q-59 -94 -163 -94q-98 0 -145 63q-45 61 -45 189v260h91v-250q0 -99 26 -138q27 -40 87 -40q42 0 81.5 26.5t67.5 69.5v332h91v-500h-91z" />
    <glyph glyph-name="v" unicode="v" horiz-adv-x="479" 
d="M376 500h97l-194 -500h-82l-189 500h101l133 -387h2z" />
    <glyph glyph-name="w" unicode="w" horiz-adv-x="733" 
d="M419 500l101 -385h3l102 385h92l-144 -500h-98l-107 389h-2l-110 -389h-102l-138 500h98l94 -385h2l111 385h98z" />
    <glyph glyph-name="x" unicode="x" horiz-adv-x="490" 
d="M480 500l-177 -243l181 -257h-116l-125 186l-125 -186h-112l184 249l-174 251h115l120 -178l119 178h110z" />
    <glyph glyph-name="y" unicode="y" horiz-adv-x="477" 
d="M6 500h101l130 -379h2l133 379h99l-281 -725l-80 31l79 209z" />
    <glyph glyph-name="z" unicode="z" horiz-adv-x="454" 
d="M59 41l221 379h-232v80h353v-40l-221 -380h238v-80h-359v41z" />
    <glyph glyph-name="braceleft" unicode="{" horiz-adv-x="311" 
d="M9 260l2 82q79 18 79 146v75q0 88 50 143.5t131 55.5q19 0 29 -1v-79q-18 2 -25 2q-54 0 -78.5 -41t-24.5 -107v-75q0 -104 -67 -160q67 -57 67 -160v-97q0 -66 24.5 -107t78.5 -41q9 0 25 2v-79q-10 -1 -29 -1q-81 0 -131 55.5t-50 143.5v109q0 53 -20.5 89.5
t-60.5 44.5z" />
    <glyph glyph-name="bar" unicode="|" horiz-adv-x="318" 
d="M198 -170h-78v1028h78v-1028z" />
    <glyph glyph-name="braceright" unicode="}" horiz-adv-x="311" 
d="M299 342l2 -82q-40 -8 -60.5 -44.5t-20.5 -89.5v-109q0 -88 -50 -143.5t-131 -55.5q-19 0 -29 1v79q16 -2 25 -2q54 0 78.5 41t24.5 107v97q0 103 67 160q-67 56 -67 160v75q0 66 -24.5 107t-78.5 41q-7 0 -25 -2v79q10 1 29 1q81 0 131 -55.5t50 -143.5v-75
q0 -128 79 -146z" />
    <glyph glyph-name="asciitilde" unicode="~" 
d="M441 389l76 8q2 -16 2 -32q0 -56 -38 -89t-98 -33q-43 0 -84 22.5t-75 45t-61 22.5q-21 0 -38 -13t-17 -33q0 -11 2 -17l-76 -8q-2 16 -2 32q0 56 38 89t98 33q34 0 68 -14t56 -31t48 -31t48 -14q20 0 37.5 13.5t17.5 32.5q0 11 -2 17z" />
    <glyph glyph-name="uni00A0" unicode="&#xa0;" horiz-adv-x="250" 
 />
    <glyph glyph-name="exclamdown" unicode="&#xa1;" horiz-adv-x="317" 
d="M104 -200v111l10 379h89l10 -379v-111h-109zM106 500h105v-116h-105v116z" />
    <glyph glyph-name="cent" unicode="&#xa2;" 
d="M440 173l45 -70q-53 -42 -130 -48v-87h-64v89q-94 14 -154.5 84t-60.5 175q0 97 60.5 169t154.5 89v90h64v-87q67 -4 123 -42l-43 -75q-45 34 -102 34q-68 0 -116 -52t-48 -126q0 -79 48.5 -128.5t116.5 -49.5q59 0 106 35z" />
    <glyph glyph-name="sterling" unicode="&#xa3;" 
d="M486 0h-406v86h57v230h-57v84h57v54q0 97 57 159.5t145 62.5q87 0 147 -37l-39 -78q-35 31 -104 31q-115 0 -115 -165v-27h135v-84h-135v-230h258v-86z" />
    <glyph glyph-name="currency" unicode="&#xa4;" 
d="M59 325q0 67 40 125l-52 52l51 51l52 -52q56 40 125 40q67 0 125 -40l52 52l51 -51l-52 -52q40 -58 40 -125q0 -69 -40 -125l52 -52l-51 -51l-52 52q-58 -40 -125 -40q-69 0 -125 40l-52 -52l-51 51l52 52q-40 56 -40 125zM137 325q0 -57 40.5 -97.5t97.5 -40.5
t97.5 40.5t40.5 97.5t-40.5 97.5t-97.5 40.5t-97.5 -40.5t-40.5 -97.5z" />
    <glyph glyph-name="yen" unicode="&#xa5;" 
d="M55 256v74h149l-187 334h108l152 -279h2l147 279h106l-190 -334h148v-74h-170v-64h170v-74h-172v-118h-91v118h-172v74h170v64h-170z" />
    <glyph glyph-name="brokenbar" unicode="&#xa6;" horiz-adv-x="318" 
d="M198 -200h-78v375h78v-375zM198 375h-78v375h78v-375z" />
    <glyph glyph-name="section" unicode="&#xa7;" 
d="M446 662l-49 -63q-61 37 -132 37q-40 0 -71.5 -18.5t-31.5 -54.5q0 -12 4.5 -22.5t15.5 -19t19.5 -15t28.5 -14t30.5 -11.5t35.5 -12t35 -11q37 -12 62.5 -24t52 -31t40 -47t13.5 -63q0 -43 -27 -80t-70 -58q78 -42 78 -121q0 -87 -60 -130.5t-155 -43.5q-133 0 -214 75
l54 64q70 -63 160 -63q51 0 86.5 23.5t35.5 64.5q0 30 -27 48.5t-79 34.5q-9 3 -37 11t-40.5 12t-37.5 13.5t-37 17t-29.5 20.5t-26 26.5t-15 32.5t-6.5 41q0 51 26.5 89.5t72.5 57.5q-76 45 -76 123t56.5 119.5t137.5 41.5q102 0 177 -50zM326 186q33 13 56.5 39t23.5 57
q0 14 -4.5 25.5t-16 21.5t-21 16.5t-29.5 14.5t-31.5 12t-37 12t-36.5 11q-38 -12 -61.5 -38.5t-23.5 -56.5q0 -15 5 -27t16.5 -22t21.5 -17t30.5 -14.5t32.5 -11.5t38 -11t37 -11z" />
    <glyph glyph-name="dieresis" unicode="&#xa8;" horiz-adv-x="360" 
d="M125 598h-93v102h93v-102zM328 598h-93v102h93v-102z" />
    <glyph glyph-name="copyright" unicode="&#xa9;" horiz-adv-x="799" 
d="M55 333q0 143 101 244t244 101t244 -101t101 -244t-101 -244t-244 -101t-244 101t-101 244zM131 333q0 -112 78.5 -191.5t190.5 -79.5t190.5 79.5t78.5 191.5t-78.5 191.5t-190.5 79.5t-190.5 -79.5t-78.5 -191.5zM293 333q0 -56 31.5 -87.5t82.5 -31.5q39 0 73 25
l38 -58q-53 -35 -108 -35q-82 0 -138.5 51.5t-56.5 135.5q0 79 56.5 132.5t138.5 53.5q54 0 101 -30l-35 -58q-38 20 -69 20q-50 0 -82 -33t-32 -85z" />
    <glyph glyph-name="ordfeminine" unicode="&#xaa;" horiz-adv-x="381" 
d="M254 587v10q0 76 -75 76q-52 0 -106 -29l-21 57q72 33 138 33q136 0 136 -143v-205h-65l-4 34q-35 -42 -97 -42q-51 0 -86.5 27.5t-35.5 77.5q0 59 43.5 85.5t107.5 26.5q29 0 65 -8zM254 538q-31 7 -55 7q-90 0 -90 -58q0 -26 17.5 -39t45.5 -13q39 0 82 36v67z" />
    <glyph glyph-name="guillemotleft" unicode="&#xab;" horiz-adv-x="530" 
d="M281 332l145 150l44 -88l-127 -122l127 -121l-44 -88l-145 150v119zM60 332l145 150l44 -88l-127 -122l127 -121l-44 -88l-145 150v119z" />
    <glyph glyph-name="logicalnot" unicode="&#xac;" 
d="M24 420h501v-290h-78v212h-423v78z" />
    <glyph glyph-name="uni00AD" unicode="&#xad;" horiz-adv-x="460" 
d="M360 238h-260v82h260v-82z" />
    <glyph glyph-name="registered" unicode="&#xae;" horiz-adv-x="575" 
d="M55 484q0 97 68 165t164 68q97 0 165 -68t68 -165q0 -96 -68 -164t-165 -68q-96 0 -164 68t-68 164zM115 484q0 -71 50.5 -122.5t121.5 -51.5q72 0 122.5 51t50.5 123q0 73 -50.5 124t-122.5 51q-71 0 -121.5 -51t-50.5 -124zM399 363h-66l-65 91h-13v-91h-54v241h59
q60 0 87 -17.5t27 -55.5q0 -51 -48 -69zM318 529q0 19 -12.5 25t-50.5 6v-62q33 0 48 6t15 25z" />
    <glyph glyph-name="macron" unicode="&#xaf;" horiz-adv-x="360" 
d="M328 608h-296v70h296v-70z" />
    <glyph glyph-name="degree" unicode="&#xb0;" horiz-adv-x="462" 
d="M148 543q0 -35 24 -59.5t58 -24.5t59 24.5t25 59.5t-25 60.5t-59 25.5t-58 -25.5t-24 -60.5zM80 543q0 61 44 105.5t106 44.5q61 0 106.5 -44.5t45.5 -105.5q0 -62 -45.5 -105t-106.5 -43q-62 0 -106 43t-44 105z" />
    <glyph glyph-name="plusminus" unicode="&#xb1;" 
d="M25 78h500v-78h-500v78zM314 631v-211h211v-78h-211v-210h-78v210h-211v78h211v211h78z" />
    <glyph glyph-name="twosuperior" unicode="&#xb2;" horiz-adv-x="319" 
d="M38 425q79 82 137 164q32 44 32 77q0 21 -15.5 34t-37.5 13q-23 0 -38 -16t-15 -42l-72 12q4 48 41.5 78t85.5 30q50 0 87.5 -30t37.5 -78q0 -52 -41 -111q-36 -51 -106 -127h165v-62h-261v58z" />
    <glyph glyph-name="threesuperior" unicode="&#xb3;" horiz-adv-x="319" 
d="M98 540v64q37 2 51 6q21 5 34 19t13 33q0 22 -16 36.5t-41 14.5q-46 0 -57 -42l-60 26q12 36 43.5 57t73.5 21q55 0 92.5 -29.5t37.5 -77.5q0 -26 -13.5 -49.5t-35.5 -35.5q30 -11 49 -37.5t19 -60.5q0 -57 -40 -90t-99 -33q-42 0 -78.5 19.5t-53.5 56.5l59 29
q22 -43 72 -43q27 0 46.5 15t19.5 43q0 29 -22 45.5t-56 16.5q-23 0 -38 -4z" />
    <glyph glyph-name="acute" unicode="&#xb4;" horiz-adv-x="360" 
d="M303 726l-134 -160l-55 42l123 169z" />
    <glyph glyph-name="mu" unicode="&#xb5;" 
d="M406 0v82q-59 -94 -163 -94q-58 0 -99 22v-260h-91v750h91v-250q0 -31 1 -50.5t7.5 -46.5t17.5 -42.5t33.5 -27t53.5 -11.5q42 0 81.5 26.5t67.5 69.5v332h91v-500h-91z" />
    <glyph glyph-name="paragraph" unicode="&#xb6;" 
d="M498 -175h-96v875h96v-875zM345 -175h-96v457q-87 10 -147 62t-60 147q0 55 22.5 97t59 65.5t78.5 35t87 11.5h56v-875zM138 491q0 -54 32 -84.5t79 -35.5v241q-47 -6 -79 -36.5t-32 -84.5z" />
    <glyph glyph-name="periodcentered" unicode="&#xb7;" horiz-adv-x="250" 
d="M177 259h-105v116h105v-116z" />
    <glyph glyph-name="cedilla" unicode="&#xb8;" horiz-adv-x="360" 
d="M174 -1l-24 -64l1 -1q22 16 48 16q35 0 61 -26.5t26 -66.5q0 -41 -31.5 -71.5t-77.5 -30.5q-70 0 -103 59l57 28q12 -32 46 -32q19 0 31 13t12 31q0 20 -12.5 33.5t-32.5 13.5q-29 0 -39 -24l-61 32l42 101z" />
    <glyph glyph-name="onesuperior" unicode="&#xb9;" horiz-adv-x="216" 
d="M162 367h-72v319q-10 -5 -58 -26v66q42 23 83 44h47v-403z" />
    <glyph glyph-name="ordmasculine" unicode="&#xba;" horiz-adv-x="410" 
d="M205 734q75 0 125 -51.5t50 -126.5t-50 -126.5t-125 -51.5t-125 51.5t-50 126.5t50 126.5t125 51.5zM306 556q0 48 -28.5 80.5t-72.5 32.5t-72.5 -32.5t-28.5 -80.5t28.5 -80.5t72.5 -32.5t72.5 32.5t28.5 80.5z" />
    <glyph glyph-name="guillemotright" unicode="&#xbb;" horiz-adv-x="530" 
d="M104 471l145 -140v-119l-145 -140l-44 78l127 121l-127 122zM325 471l145 -140v-119l-145 -140l-44 78l127 121l-127 122z" />
    <glyph glyph-name="onequarter" unicode="&#xbc;" horiz-adv-x="745" 
d="M577 712l55 -40l-497 -684l-55 40zM224 338h-69v283q-26 -12 -53 -23v62q2 1 32 16.5t45 23.5h45v-362zM389 150q78 102 154 209h70v-213h52v-57h-52v-89h-68v89h-156v61zM545 146v122q-79 -116 -83 -122h83z" />
    <glyph glyph-name="onehalf" unicode="&#xbd;" horiz-adv-x="770" 
d="M577 712l55 -40l-497 -684l-55 40zM224 338h-69v283q-26 -12 -53 -23v62q2 1 32 16.5t45 23.5h45v-362zM450 53q72 74 125 147q28 38 28 67q0 18 -13 29t-33 11t-33 -14t-13 -38l-69 12q3 44 37.5 71.5t80.5 27.5t80.5 -27.5t34.5 -71.5q0 -43 -39 -99q-32 -46 -93 -110
h147v-58h-240v53z" />
    <glyph glyph-name="threequarters" unicode="&#xbe;" horiz-adv-x="812" 
d="M644 712l55 -40l-497 -684l-55 40zM157 494v60q30 0 45 4q41 11 41 47q0 19 -14 31t-37 12q-39 0 -48 -38l-59 26q12 33 41.5 52t66.5 19q50 0 85 -27t35 -70q0 -23 -12.5 -44t-32.5 -32q28 -10 45 -34t17 -55q0 -50 -37 -80t-91 -30q-39 0 -72 18t-50 53l58 27
q18 -40 64 -40q24 0 40.5 13.5t16.5 37.5q0 25 -19.5 39t-50.5 14q-20 0 -32 -3zM456 150q78 102 154 209h70v-213h52v-57h-52v-89h-68v89h-156v61zM612 146v122q-79 -116 -83 -122h83z" />
    <glyph glyph-name="questiondown" unicode="&#xbf;" horiz-adv-x="541" 
d="M227 291h97v-166q-36 -12 -59.5 -22.5t-49 -28.5t-38.5 -43t-13 -58q0 -42 30 -72t75 -30q49 0 78 30t29 82v8h91v-4q0 -86 -58.5 -142t-139.5 -56q-83 0 -139.5 56t-56.5 125q0 84 41 129t113 78v114zM223 501h105v-116h-105v116z" />
    <glyph glyph-name="Agrave" unicode="&#xc0;" horiz-adv-x="653" 
d="M638 0h-111l-55 149h-298l-54 -149h-105l271 700h84zM323 554l-117 -319h235l-117 319h-1zM351 740l-175 126l52 66l165 -138z" />
    <glyph glyph-name="Aacute" unicode="&#xc1;" horiz-adv-x="653" 
d="M638 0h-111l-55 149h-298l-54 -149h-105l271 700h84zM323 554l-117 -319h235l-117 319h-1zM480 866l-175 -126l-42 54l165 138z" />
    <glyph glyph-name="Acircumflex" unicode="&#xc2;" horiz-adv-x="653" 
d="M638 0h-111l-55 149h-298l-54 -149h-105l271 700h84zM323 554l-117 -319h235l-117 319h-1zM280 922h95l107 -134l-54 -42l-102 116l-101 -116l-55 42z" />
    <glyph glyph-name="Atilde" unicode="&#xc3;" horiz-adv-x="653" 
d="M638 0h-111l-55 149h-298l-54 -149h-105l271 700h84zM323 554l-117 -319h235l-117 319h-1zM448 866l65 7q2 -12 2 -27q0 -43 -27.5 -69t-70.5 -26q-30 0 -57.5 16t-50 32t-40.5 16q-31 0 -33 -30q0 -7 1 -10l-65 -7q-2 12 -2 27q0 43 27.5 69t70.5 26q37 0 83 -32t65 -32
q31 0 33 30q0 7 -1 10z" />
    <glyph glyph-name="Adieresis" unicode="&#xc4;" horiz-adv-x="653" 
d="M638 0h-111l-55 149h-298l-54 -149h-105l271 700h84zM323 554l-117 -319h235l-117 319h-1zM243 764h-102v111h102v-111zM513 764h-102v111h102v-111z" />
    <glyph glyph-name="Aring" unicode="&#xc5;" horiz-adv-x="653" 
d="M638 0h-111l-55 149h-298l-54 -149h-105l271 700h84zM323 554l-117 -319h235l-117 319h-1zM236 819q0 38 27.5 65.5t65.5 27.5t65.5 -27.5t27.5 -65.5t-27.5 -65.5t-65.5 -27.5t-65.5 27.5t-27.5 65.5zM285 819q0 -18 13 -31t31 -13t31 13t13 31t-13 31t-31 13t-31 -13
t-13 -31z" />
    <glyph glyph-name="AE" unicode="&#xc6;" horiz-adv-x="986" 
d="M921 0h-420v149h-286l-105 -149h-120l512 700h419v-86h-324v-210h324v-86h-324v-232h324v-86zM275 235h226v321z" />
    <glyph glyph-name="Ccedilla" unicode="&#xc7;" horiz-adv-x="674" 
d="M624 658l-45 -74q-68 42 -143 42q-119 0 -196.5 -78t-77.5 -198q0 -126 76 -201t198 -75q82 0 155 49l51 -71q-94 -64 -206 -64q-33 0 -58 4l-24 -57l2 -1q18 16 48 16q39 0 63 -27t24 -66q0 -41 -31.5 -71.5t-77.5 -30.5q-70 0 -103 59l57 28q12 -32 46 -32q19 0 31 13
t12 31q0 19 -11.5 33t-31.5 14q-28 0 -41 -24l-62 33l43 93q-118 32 -190 124t-72 223q0 154 109.5 258t266.5 104q101 0 188 -54z" />
    <glyph glyph-name="Egrave" unicode="&#xc8;" horiz-adv-x="580" 
d="M515 0h-420v700h420v-86h-324v-210h324v-86h-324v-232h324v-86zM344 740l-175 126l52 66l165 -138z" />
    <glyph glyph-name="Eacute" unicode="&#xc9;" horiz-adv-x="580" 
d="M515 0h-420v700h420v-86h-324v-210h324v-86h-324v-232h324v-86zM447 866l-175 -126l-42 54l165 138z" />
    <glyph glyph-name="Ecircumflex" unicode="&#xca;" horiz-adv-x="580" 
d="M515 0h-420v700h420v-86h-324v-210h324v-86h-324v-232h324v-86zM264 922h95l107 -134l-54 -42l-102 116l-101 -116l-55 42z" />
    <glyph glyph-name="Edieresis" unicode="&#xcb;" horiz-adv-x="580" 
d="M248 764h-100v111h100v-111zM478 764h-100v111h100v-111zM515 0h-420v700h420v-86h-324v-210h324v-86h-324v-232h324v-86z" />
    <glyph glyph-name="Igrave" unicode="&#xcc;" horiz-adv-x="286" 
d="M191 0h-96v700h96v-700zM168 740l-175 126l52 66l165 -138z" />
    <glyph glyph-name="Iacute" unicode="&#xcd;" horiz-adv-x="286" 
d="M191 0h-96v700h96v-700zM297 866l-175 -126l-42 54l165 138z" />
    <glyph glyph-name="Icircumflex" unicode="&#xce;" horiz-adv-x="286" 
d="M191 0h-96v700h96v-700zM97 922h95l107 -134l-54 -42l-102 116l-101 -116l-55 42z" />
    <glyph glyph-name="Idieresis" unicode="&#xcf;" horiz-adv-x="286" 
d="M80 764h-102v111h102v-111zM308 764h-102v111h102v-111zM191 0h-96v700h96v-700z" />
    <glyph glyph-name="Eth" unicode="&#xd0;" horiz-adv-x="720" 
d="M660 353q0 -93 -33 -163.5t-89.5 -110.5t-122.5 -59.5t-141 -19.5h-179v321h-70v79h70v300h189q55 0 107.5 -11.5t101.5 -38t86 -65.5t59 -99t22 -133zM558 344q0 131 -76.5 200.5t-215.5 69.5h-75v-214h120v-79h-120v-235h33q161 0 247.5 59.5t86.5 198.5z" />
    <glyph glyph-name="Ntilde" unicode="&#xd1;" horiz-adv-x="755" 
d="M660 0h-85l-384 522v-522h-96v700h84l385 -522v522h96v-700zM491 866l65 7q2 -12 2 -27q0 -43 -27.5 -69t-70.5 -26q-30 0 -57.5 16t-50 32t-40.5 16q-31 0 -33 -30q0 -7 1 -10l-65 -7q-2 12 -2 27q0 43 27.5 69t70.5 26q37 0 83 -32t65 -32q31 0 33 30q0 7 -1 10z" />
    <glyph glyph-name="Ograve" unicode="&#xd2;" horiz-adv-x="840" 
d="M678 350q0 117 -73.5 196.5t-184.5 79.5t-184.5 -79.5t-73.5 -196.5t73.5 -196.5t184.5 -79.5t184.5 79.5t73.5 196.5zM780 350q0 -151 -104 -256.5t-256 -105.5t-256 105.5t-104 256.5t104 256.5t256 105.5t256 -105.5t104 -256.5zM445 740l-175 126l52 66l165 -138z
" />
    <glyph glyph-name="Oacute" unicode="&#xd3;" horiz-adv-x="840" 
d="M678 350q0 117 -73.5 196.5t-184.5 79.5t-184.5 -79.5t-73.5 -196.5t73.5 -196.5t184.5 -79.5t184.5 79.5t73.5 196.5zM780 350q0 -151 -104 -256.5t-256 -105.5t-256 105.5t-104 256.5t104 256.5t256 105.5t256 -105.5t104 -256.5zM574 866l-175 -126l-42 54l165 138z
" />
    <glyph glyph-name="Ocircumflex" unicode="&#xd4;" horiz-adv-x="840" 
d="M678 350q0 117 -73.5 196.5t-184.5 79.5t-184.5 -79.5t-73.5 -196.5t73.5 -196.5t184.5 -79.5t184.5 79.5t73.5 196.5zM780 350q0 -151 -104 -256.5t-256 -105.5t-256 105.5t-104 256.5t104 256.5t256 105.5t256 -105.5t104 -256.5zM372 922h95l107 -134l-54 -42
l-102 116l-101 -116l-55 42z" />
    <glyph glyph-name="Otilde" unicode="&#xd5;" horiz-adv-x="840" 
d="M678 350q0 117 -73.5 196.5t-184.5 79.5t-184.5 -79.5t-73.5 -196.5t73.5 -196.5t184.5 -79.5t184.5 79.5t73.5 196.5zM780 350q0 -151 -104 -256.5t-256 -105.5t-256 105.5t-104 256.5t104 256.5t256 105.5t256 -105.5t104 -256.5zM546 866l65 7q2 -12 2 -27
q0 -43 -27.5 -69t-70.5 -26q-30 0 -57.5 16t-50 32t-40.5 16q-31 0 -33 -30q0 -7 1 -10l-65 -7q-2 12 -2 27q0 43 27.5 69t70.5 26q37 0 83 -32t65 -32q31 0 33 30q0 7 -1 10z" />
    <glyph glyph-name="Odieresis" unicode="&#xd6;" horiz-adv-x="840" 
d="M678 350q0 117 -73.5 196.5t-184.5 79.5t-184.5 -79.5t-73.5 -196.5t73.5 -196.5t184.5 -79.5t184.5 79.5t73.5 196.5zM780 350q0 -151 -104 -256.5t-256 -105.5t-256 105.5t-104 256.5t104 256.5t256 105.5t256 -105.5t104 -256.5zM336 764h-102v111h102v-111zM606 764
h-102v111h102v-111z" />
    <glyph glyph-name="multiply" unicode="&#xd7;" 
d="M126 516l149 -150l150 150l55 -56l-149 -149l148 -148l-55 -56l-149 149l-149 -149l-55 55l149 149l-149 149z" />
    <glyph glyph-name="Oslash" unicode="&#xd8;" horiz-adv-x="840" 
d="M680 672l-29 -43q60 -50 94.5 -123t34.5 -156q0 -151 -104 -256.5t-256 -105.5q-95 0 -173 43l-33 -49l-67 42l35 52q-58 50 -90 121t-32 153q0 151 104 256.5t256 105.5q87 0 165 -40l28 42zM678 350q0 121 -79 202l-302 -447q56 -31 123 -31q111 0 184.5 79.5
t73.5 196.5zM162 350q0 -118 73 -196l300 445q-54 27 -115 27q-111 0 -184.5 -79.5t-73.5 -196.5z" />
    <glyph glyph-name="Ugrave" unicode="&#xd9;" horiz-adv-x="722" 
d="M632 700v-371q0 -169 -66 -255t-207 -86q-269 0 -269 341v371h96v-396q0 -114 46 -172t129 -58t129 58t46 172v396h96zM386 740l-175 126l52 66l165 -138z" />
    <glyph glyph-name="Uacute" unicode="&#xda;" horiz-adv-x="722" 
d="M632 700v-371q0 -169 -66 -255t-207 -86q-269 0 -269 341v371h96v-396q0 -114 46 -172t129 -58t129 58t46 172v396h96zM515 866l-175 -126l-42 54l165 138z" />
    <glyph glyph-name="Ucircumflex" unicode="&#xdb;" horiz-adv-x="722" 
d="M632 700v-371q0 -169 -66 -255t-207 -86q-269 0 -269 341v371h96v-396q0 -114 46 -172t129 -58t129 58t46 172v396h96zM323 922h95l107 -134l-54 -42l-102 116l-101 -116l-55 42z" />
    <glyph glyph-name="Udieresis" unicode="&#xdc;" horiz-adv-x="722" 
d="M632 700v-371q0 -169 -66 -255t-207 -86q-269 0 -269 341v371h96v-396q0 -114 46 -172t129 -58t129 58t46 172v396h96zM277 764h-102v111h102v-111zM547 764h-102v111h102v-111z" />
    <glyph glyph-name="Yacute" unicode="&#xdd;" horiz-adv-x="555" 
d="M324 0h-96v304l-223 396h119l156 -294h3l155 294h112l-226 -401v-299zM422 866l-175 -126l-42 54l165 138z" />
    <glyph glyph-name="Thorn" unicode="&#xde;" horiz-adv-x="601" 
d="M95 701h96v-137h113q45 0 87 -11.5t78.5 -35t59 -65.5t22.5 -97q0 -56 -22 -98t-59 -66t-79 -35.5t-87 -11.5h-113v-144h-96v701zM449 352q0 58 -41 92t-109 34h-108v-248h88q170 0 170 122z" />
    <glyph glyph-name="germandbls" unicode="&#xdf;" horiz-adv-x="625" 
d="M171 0h-91v541q0 99 63.5 160t157.5 61t155 -55.5t61 -147.5q0 -41 -21 -77t-55 -59q65 -21 102 -73t37 -131q0 -105 -68 -168t-170 -63q-58 0 -106 26l34 78q33 -20 75 -20q71 0 106.5 39.5t35.5 107.5q0 76 -47.5 115t-122.5 39q-30 0 -44 -2v72h20q50 0 91.5 32
t41.5 82q0 55 -33.5 88t-89.5 33q-65 0 -98.5 -41.5t-33.5 -115.5v-521z" />
    <glyph glyph-name="agrave" unicode="&#xe0;" horiz-adv-x="546" 
d="M468 0h-87v53q-58 -65 -150 -65q-75 0 -126 38t-51 114q0 60 34 99t81.5 53t107.5 14q47 0 100 -11v18q0 120 -118 120q-79 0 -159 -44l-27 76q98 47 197 47q105 0 151.5 -53.5t46.5 -154.5v-304zM377 124v103q-46 10 -90 10q-144 0 -144 -90q0 -43 27.5 -63t71.5 -20
q64 0 135 60zM270 566l-134 160l66 51l123 -169z" />
    <glyph glyph-name="aacute" unicode="&#xe1;" horiz-adv-x="546" 
d="M468 0h-87v53q-58 -65 -150 -65q-75 0 -126 38t-51 114q0 60 34 99t81.5 53t107.5 14q47 0 100 -11v18q0 120 -118 120q-79 0 -159 -44l-27 76q98 47 197 47q105 0 151.5 -53.5t46.5 -154.5v-304zM377 124v103q-46 10 -90 10q-144 0 -144 -90q0 -43 27.5 -63t71.5 -20
q64 0 135 60zM395 726l-134 -160l-55 42l123 169z" />
    <glyph glyph-name="acircumflex" unicode="&#xe2;" horiz-adv-x="546" 
d="M468 0h-87v53q-58 -65 -150 -65q-75 0 -126 38t-51 114q0 60 34 99t81.5 53t107.5 14q47 0 100 -11v18q0 120 -118 120q-79 0 -159 -44l-27 76q98 47 197 47q105 0 151.5 -53.5t46.5 -154.5v-304zM377 124v103q-46 10 -90 10q-144 0 -144 -90q0 -43 27.5 -63t71.5 -20
q64 0 135 60zM407 602l-53 -36l-93 129l-93 -129l-55 36l104 157h88z" />
    <glyph glyph-name="atilde" unicode="&#xe3;" horiz-adv-x="546" 
d="M468 0h-87v53q-58 -65 -150 -65q-75 0 -126 38t-51 114q0 60 34 99t81.5 53t107.5 14q47 0 100 -11v18q0 120 -118 120q-79 0 -159 -44l-27 76q98 47 197 47q105 0 151.5 -53.5t46.5 -154.5v-304zM377 124v103q-46 10 -90 10q-144 0 -144 -90q0 -43 27.5 -63t71.5 -20
q64 0 135 60zM434 700q2 -12 2 -23q0 -43 -27.5 -69t-70.5 -26q-40 0 -84.5 32t-63.5 32q-31 0 -33 -30q0 -7 1 -10l-65 -7q-2 12 -2 23q0 43 27.5 69t70.5 26q38 0 83.5 -32t64.5 -32q31 0 33 30q0 7 -1 10z" />
    <glyph glyph-name="adieresis" unicode="&#xe4;" horiz-adv-x="546" 
d="M468 0h-87v53q-58 -65 -150 -65q-75 0 -126 38t-51 114q0 60 34 99t81.5 53t107.5 14q47 0 100 -11v18q0 120 -118 120q-79 0 -159 -44l-27 76q98 47 197 47q105 0 151.5 -53.5t46.5 -154.5v-304zM377 124v103q-46 10 -90 10q-144 0 -144 -90q0 -43 27.5 -63t71.5 -20
q64 0 135 60zM207 598h-93v102h93v-102zM410 598h-93v102h93v-102z" />
    <glyph glyph-name="aring" unicode="&#xe5;" horiz-adv-x="546" 
d="M468 0h-87v53q-58 -65 -150 -65q-75 0 -126 38t-51 114q0 60 34 99t81.5 53t107.5 14q47 0 100 -11v18q0 120 -118 120q-79 0 -159 -44l-27 76q98 47 197 47q105 0 151.5 -53.5t46.5 -154.5v-304zM377 124v103q-46 10 -90 10q-144 0 -144 -90q0 -43 27.5 -63t71.5 -20
q64 0 135 60zM172 658q0 38 27.5 65.5t65.5 27.5t65.5 -27.5t27.5 -65.5t-27.5 -65.5t-65.5 -27.5t-65.5 27.5t-27.5 65.5zM221 658q0 -18 13 -31t31 -13t31 13t13 31t-13 31t-31 13t-31 -13t-13 -31z" />
    <glyph glyph-name="ae" unicode="&#xe6;" horiz-adv-x="891" 
d="M755 300q-3 55 -40.5 94.5t-92.5 39.5q-58 0 -97.5 -37.5t-53.5 -96.5h284zM392 140q-16 44 -19 88q-45 9 -86 9q-144 0 -144 -90q0 -43 27.5 -63t71.5 -20q81 0 150 76zM774 147l66 -42q-73 -117 -219 -117q-125 0 -193 86q-73 -86 -197 -86q-75 0 -126 38t-51 114
q0 60 34 99t81.5 53t107.5 14q47 0 100 -11v18q0 120 -118 120q-79 0 -159 -44l-27 76q98 47 197 47q128 0 171 -84q71 84 180 84q99 0 163.5 -66t64.5 -167q0 -26 -4 -52h-381q5 -68 48.5 -114.5t112.5 -46.5q106 0 149 81z" />
    <glyph glyph-name="ccedilla" unicode="&#xe7;" horiz-adv-x="475" 
d="M406 107l45 -70q-60 -49 -153 -49q-11 0 -16 1l-20 -54l1 -1q22 16 48 16q35 0 61 -26.5t26 -66.5q0 -41 -31.5 -71.5t-77.5 -30.5q-70 0 -103 59l57 28q12 -32 46 -32q19 0 31 13t12 31q0 20 -12.5 33.5t-32.5 13.5q-29 0 -39 -24l-61 32l37 89q-82 22 -132 89.5
t-50 162.5q0 110 76 186t185 76q77 0 141 -43l-43 -75q-45 34 -102 34q-68 0 -116 -52t-48 -126q0 -79 48.5 -128.5t116.5 -49.5q59 0 106 35z" />
    <glyph glyph-name="egrave" unicode="&#xe8;" horiz-adv-x="560" 
d="M514 227h-381q5 -68 48.5 -114.5t112.5 -46.5q106 0 149 81l66 -42q-73 -117 -219 -117q-116 0 -182 74t-66 188q0 111 71.5 186.5t176.5 75.5q99 0 163.5 -66t64.5 -167q0 -26 -4 -52zM291 434q-58 0 -97.5 -37.5t-53.5 -96.5h284q-3 55 -40.5 94.5t-92.5 39.5zM287 566
l-134 160l66 51l123 -169z" />
    <glyph glyph-name="eacute" unicode="&#xe9;" horiz-adv-x="560" 
d="M514 227h-381q5 -68 48.5 -114.5t112.5 -46.5q106 0 149 81l66 -42q-73 -117 -219 -117q-116 0 -182 74t-66 188q0 111 71.5 186.5t176.5 75.5q99 0 163.5 -66t64.5 -167q0 -26 -4 -52zM291 434q-58 0 -97.5 -37.5t-53.5 -96.5h284q-3 55 -40.5 94.5t-92.5 39.5zM427 726
l-134 -160l-55 42l123 169z" />
    <glyph glyph-name="ecircumflex" unicode="&#xea;" horiz-adv-x="560" 
d="M514 227h-381q5 -68 48.5 -114.5t112.5 -46.5q106 0 149 81l66 -42q-73 -117 -219 -117q-116 0 -182 74t-66 188q0 111 71.5 186.5t176.5 75.5q99 0 163.5 -66t64.5 -167q0 -26 -4 -52zM291 434q-58 0 -97.5 -37.5t-53.5 -96.5h284q-3 55 -40.5 94.5t-92.5 39.5zM436 602
l-53 -36l-93 129l-93 -129l-55 36l104 157h88z" />
    <glyph glyph-name="edieresis" unicode="&#xeb;" horiz-adv-x="560" 
d="M514 227h-381q5 -68 48.5 -114.5t112.5 -46.5q106 0 149 81l66 -42q-73 -117 -219 -117q-116 0 -182 74t-66 188q0 111 71.5 186.5t176.5 75.5q99 0 163.5 -66t64.5 -167q0 -26 -4 -52zM291 434q-58 0 -97.5 -37.5t-53.5 -96.5h284q-3 55 -40.5 94.5t-92.5 39.5zM235 598
h-93v102h93v-102zM438 598h-93v102h93v-102z" />
    <glyph glyph-name="igrave" unicode="&#xec;" horiz-adv-x="259" 
d="M175 0h-91v500h91v-500zM124 566l-134 160l66 51l123 -169z" />
    <glyph glyph-name="iacute" unicode="&#xed;" horiz-adv-x="259" 
d="M175 0h-91v500h91v-500zM267 726l-134 -160l-55 42l123 169z" />
    <glyph glyph-name="icircumflex" unicode="&#xee;" horiz-adv-x="259" 
d="M175 0h-91v500h91v-500zM276 602l-53 -36l-93 129l-93 -129l-55 36l104 157h88z" />
    <glyph glyph-name="idieresis" unicode="&#xef;" horiz-adv-x="259" 
d="M75 598h-93v102h93v-102zM278 598h-93v102h93v-102zM175 0h-91v500h91v-500z" />
    <glyph glyph-name="eth" unicode="&#xf0;" horiz-adv-x="574" 
d="M328 767l-55 -95q259 -168 259 -440q0 -102 -68.5 -173t-184.5 -71q-106 0 -171.5 73.5t-65.5 174.5q0 94 64.5 162.5t154.5 68.5q69 0 127 -34q-53 92 -159 164l-57 -98l-63 38l57 98q-36 20 -99 47l34 79q63 -28 108 -52l55 95zM423 352q-59 32 -131 32
q-68 0 -112.5 -39.5t-44.5 -110.5q0 -68 42.5 -115t109.5 -47q77 0 114 48.5t37 124.5q0 52 -15 107z" />
    <glyph glyph-name="ntilde" unicode="&#xf1;" horiz-adv-x="606" 
d="M84 500h91v-82q59 94 163 94q98 0 145 -63q45 -61 45 -189v-260h-91v250q0 99 -26 138q-27 40 -87 40q-42 0 -81.5 -26.5t-67.5 -69.5v-332h-91v500zM492 700q2 -12 2 -23q0 -43 -27.5 -69t-70.5 -26q-31 0 -58.5 16t-49.5 32t-40 16q-31 0 -33 -30q0 -7 1 -10l-65 -7
q-2 12 -2 23q0 43 27.5 69t70.5 26q38 0 83.5 -32t64.5 -32q31 0 33 30q0 7 -1 10z" />
    <glyph glyph-name="ograve" unicode="&#xf2;" horiz-adv-x="594" 
d="M297 512q109 0 182 -76t73 -186t-73 -186t-182 -76t-182 76t-73 186t73 186t182 76zM459 250q0 74 -46 126t-116 52t-116 -52t-46 -126t46 -126t116 -52t116 52t46 126zM287 566l-134 160l66 51l123 -169z" />
    <glyph glyph-name="oacute" unicode="&#xf3;" horiz-adv-x="594" 
d="M297 512q109 0 182 -76t73 -186t-73 -186t-182 -76t-182 76t-73 186t73 186t182 76zM459 250q0 74 -46 126t-116 52t-116 -52t-46 -126t46 -126t116 -52t116 52t46 126zM438 726l-134 -160l-55 42l123 169z" />
    <glyph glyph-name="ocircumflex" unicode="&#xf4;" horiz-adv-x="594" 
d="M297 512q109 0 182 -76t73 -186t-73 -186t-182 -76t-182 76t-73 186t73 186t182 76zM459 250q0 74 -46 126t-116 52t-116 -52t-46 -126t46 -126t116 -52t116 52t46 126zM443 602l-53 -36l-93 129l-93 -129l-55 36l104 157h88z" />
    <glyph glyph-name="otilde" unicode="&#xf5;" horiz-adv-x="594" 
d="M297 512q109 0 182 -76t73 -186t-73 -186t-182 -76t-182 76t-73 186t73 186t182 76zM459 250q0 74 -46 126t-116 52t-116 -52t-46 -126t46 -126t116 -52t116 52t46 126zM474 700q2 -12 2 -23q0 -43 -27.5 -69t-70.5 -26q-31 0 -58.5 16t-49.5 32t-40 16q-31 0 -33 -30
q0 -7 1 -10l-65 -7q-2 12 -2 23q0 43 27.5 69t70.5 26q38 0 83.5 -32t64.5 -32q31 0 33 30q0 7 -1 10z" />
    <glyph glyph-name="odieresis" unicode="&#xf6;" horiz-adv-x="594" 
d="M297 512q109 0 182 -76t73 -186t-73 -186t-182 -76t-182 76t-73 186t73 186t182 76zM459 250q0 74 -46 126t-116 52t-116 -52t-46 -126t46 -126t116 -52t116 52t46 126zM242 598h-93v102h93v-102zM445 598h-93v102h93v-102z" />
    <glyph glyph-name="divide" unicode="&#xf7;" 
d="M24 272v78h501v-78h-501zM327 61h-105v116h105v-116zM327 445h-105v116h105v-116z" />
    <glyph glyph-name="oslash" unicode="&#xf8;" horiz-adv-x="594" 
d="M492 486l-26 -38q86 -78 86 -198q0 -110 -73 -186t-182 -76q-65 0 -122 30l-26 -39l-54 35l28 42q-81 76 -81 194q0 110 73 186t182 76q63 0 116 -28l25 37zM459 250q0 73 -44 123l-191 -283q31 -18 73 -18q70 0 116 52t46 126zM135 250q0 -69 39 -119l190 281
q-32 16 -67 16q-70 0 -116 -52t-46 -126z" />
    <glyph glyph-name="ugrave" unicode="&#xf9;" horiz-adv-x="606" 
d="M431 0v82q-59 -94 -163 -94q-98 0 -145 63q-45 61 -45 189v260h91v-250q0 -99 26 -138q27 -40 87 -40q42 0 81.5 26.5t67.5 69.5v332h91v-500h-91zM308 566l-134 160l66 51l123 -169z" />
    <glyph glyph-name="uacute" unicode="&#xfa;" horiz-adv-x="606" 
d="M431 0v82q-59 -94 -163 -94q-98 0 -145 63q-45 61 -45 189v260h91v-250q0 -99 26 -138q27 -40 87 -40q42 0 81.5 26.5t67.5 69.5v332h91v-500h-91zM441 726l-134 -160l-55 42l123 169z" />
    <glyph glyph-name="ucircumflex" unicode="&#xfb;" horiz-adv-x="606" 
d="M431 0v82q-59 -94 -163 -94q-98 0 -145 63q-45 61 -45 189v260h91v-250q0 -99 26 -138q27 -40 87 -40q42 0 81.5 26.5t67.5 69.5v332h91v-500h-91zM454 602l-53 -36l-93 129l-93 -129l-55 36l104 157h88z" />
    <glyph glyph-name="udieresis" unicode="&#xfc;" horiz-adv-x="606" 
d="M431 0v82q-59 -94 -163 -94q-98 0 -145 63q-45 61 -45 189v260h91v-250q0 -99 26 -138q27 -40 87 -40q42 0 81.5 26.5t67.5 69.5v332h91v-500h-91zM246 598h-93v102h93v-102zM449 598h-93v102h93v-102z" />
    <glyph glyph-name="yacute" unicode="&#xfd;" horiz-adv-x="477" 
d="M6 500h101l130 -379h2l133 379h99l-281 -725l-80 31l79 209zM365 726l-134 -160l-55 42l123 169z" />
    <glyph glyph-name="thorn" unicode="&#xfe;" horiz-adv-x="626" 
d="M84 750h91v-317q26 38 69 58.5t90 20.5q107 0 178.5 -76t71.5 -187q0 -104 -71 -182.5t-181 -78.5q-93 0 -157 66v-304h-91v1000zM175 333v-185q25 -36 65 -56t80 -20q81 0 126 54t45 125q0 73 -47 125t-122 52q-44 0 -86.5 -25.5t-60.5 -69.5z" />
    <glyph glyph-name="ydieresis" unicode="&#xff;" horiz-adv-x="477" 
d="M6 500h101l130 -379h2l133 379h99l-281 -725l-80 31l79 209zM186 598h-93v102h93v-102zM389 598h-93v102h93v-102z" />
    <glyph glyph-name="Amacron" unicode="&#x100;" horiz-adv-x="653" 
d="M638 0h-111l-55 149h-298l-54 -149h-105l271 700h84zM323 554l-117 -319h235l-117 319h-1zM491 774h-330v71h330v-71z" />
    <glyph glyph-name="amacron" unicode="&#x101;" horiz-adv-x="546" 
d="M468 0h-87v53q-58 -65 -150 -65q-75 0 -126 38t-51 114q0 60 34 99t81.5 53t107.5 14q47 0 100 -11v18q0 120 -118 120q-79 0 -159 -44l-27 76q98 47 197 47q105 0 151.5 -53.5t46.5 -154.5v-304zM377 124v103q-46 10 -90 10q-144 0 -144 -90q0 -43 27.5 -63t71.5 -20
q64 0 135 60zM420 608h-296v70h296v-70z" />
    <glyph glyph-name="Abreve" unicode="&#x102;" horiz-adv-x="653" 
d="M638 0h-111l-55 149h-298l-54 -149h-105l271 700h84zM323 554l-117 -319h235l-117 319h-1zM407 894h64v-6q0 -59 -41 -95.5t-102 -36.5q-65 0 -104 36t-39 96v6h67v-6q0 -32 21 -50t55 -18q33 0 56 18t23 50v6z" />
    <glyph glyph-name="abreve" unicode="&#x103;" horiz-adv-x="546" 
d="M468 0h-87v53q-58 -65 -150 -65q-75 0 -126 38t-51 114q0 60 34 99t81.5 53t107.5 14q47 0 100 -11v18q0 120 -118 120q-79 0 -159 -44l-27 76q98 47 197 47q105 0 151.5 -53.5t46.5 -154.5v-304zM377 124v103q-46 10 -90 10q-144 0 -144 -90q0 -43 27.5 -63t71.5 -20
q64 0 135 60zM362 725h64v-14q0 -60 -41.5 -101.5t-101.5 -41.5t-101.5 41.5t-41.5 101.5v14h66v-14q0 -33 22 -56t55 -23q32 0 55.5 23t23.5 56v14z" />
    <glyph glyph-name="Aogonek" unicode="&#x104;" horiz-adv-x="653" 
d="M323 554l-117 -319h235l-117 319h-1zM638 0q-61 -15 -89.5 -45t-28.5 -65q0 -44 42 -44q22 0 44 14l32 -51q-34 -31 -89 -31q-45 0 -78 26.5t-33 72.5q0 78 89 123l-55 149h-298l-54 -149h-105l271 700h84z" />
    <glyph glyph-name="aogonek" unicode="&#x105;" horiz-adv-x="546" 
d="M468 304v-304q-51 -15 -76.5 -45.5t-25.5 -64.5q0 -44 42 -44q22 0 44 14l32 -51q-34 -31 -89 -31q-45 0 -78 26.5t-33 72.5q0 86 97 129v47q-58 -65 -150 -65q-75 0 -126 38t-51 114q0 60 34 99t81.5 53t107.5 14q47 0 100 -11v18q0 120 -118 120q-79 0 -159 -44l-27 76
q98 47 197 47q105 0 151.5 -53.5t46.5 -154.5zM377 124v103q-46 10 -90 10q-144 0 -144 -90q0 -43 27.5 -63t71.5 -20q64 0 135 60z" />
    <glyph glyph-name="Cacute" unicode="&#x106;" horiz-adv-x="674" 
d="M642 52q-94 -64 -206 -64q-160 0 -268 100t-108 262q0 154 109.5 258t266.5 104q101 0 188 -54l-45 -74q-68 42 -143 42q-119 0 -196.5 -78t-77.5 -198q0 -126 76 -201t198 -75q82 0 155 49zM574 866l-175 -126l-42 54l165 138z" />
    <glyph glyph-name="cacute" unicode="&#x107;" horiz-adv-x="475" 
d="M406 107l45 -70q-60 -49 -153 -49q-109 0 -182.5 73t-73.5 189q0 110 76 186t185 76q77 0 141 -43l-43 -75q-45 34 -102 34q-68 0 -116 -52t-48 -126q0 -79 48.5 -128.5t116.5 -49.5q59 0 106 35zM438 726l-134 -160l-55 42l123 169z" />
    <glyph glyph-name="Ccircumflex" unicode="&#x108;" horiz-adv-x="674" 
d="M642 52q-94 -64 -206 -64q-160 0 -268 100t-108 262q0 154 109.5 258t266.5 104q101 0 188 -54l-45 -74q-68 42 -143 42q-119 0 -196.5 -78t-77.5 -198q0 -126 76 -201t198 -75q82 0 155 49zM377 922h95l107 -134l-54 -42l-102 116l-101 -116l-55 42z" />
    <glyph glyph-name="ccircumflex" unicode="&#x109;" horiz-adv-x="475" 
d="M406 107l45 -70q-60 -49 -153 -49q-109 0 -182.5 73t-73.5 189q0 110 76 186t185 76q77 0 141 -43l-43 -75q-45 34 -102 34q-68 0 -116 -52t-48 -126q0 -79 48.5 -128.5t116.5 -49.5q59 0 106 35zM437 602l-53 -36l-93 129l-93 -129l-55 36l104 157h88z" />
    <glyph glyph-name="Cdotaccent" unicode="&#x10a;" horiz-adv-x="674" 
d="M642 52q-94 -64 -206 -64q-160 0 -268 100t-108 262q0 154 109.5 258t266.5 104q101 0 188 -54l-45 -74q-68 42 -143 42q-119 0 -196.5 -78t-77.5 -198q0 -126 76 -201t198 -75q82 0 155 49zM471 764h-102v111h102v-111z" />
    <glyph glyph-name="cdotaccent" unicode="&#x10b;" horiz-adv-x="475" 
d="M406 107l45 -70q-60 -49 -153 -49q-109 0 -182.5 73t-73.5 189q0 110 76 186t185 76q77 0 141 -43l-43 -75q-45 34 -102 34q-68 0 -116 -52t-48 -126q0 -79 48.5 -128.5t116.5 -49.5q59 0 106 35zM327 598h-91v102h91v-102z" />
    <glyph glyph-name="Ccaron" unicode="&#x10c;" horiz-adv-x="674" 
d="M642 52q-94 -64 -206 -64q-160 0 -268 100t-108 262q0 154 109.5 258t266.5 104q101 0 188 -54l-45 -74q-68 42 -143 42q-119 0 -196.5 -78t-77.5 -198q0 -126 76 -201t198 -75q82 0 155 49zM470 752h-95l-107 134l55 42l102 -116l101 116l54 -42z" />
    <glyph glyph-name="ccaron" unicode="&#x10d;" horiz-adv-x="475" 
d="M406 107l45 -70q-60 -49 -153 -49q-109 0 -182.5 73t-73.5 189q0 110 76 186t185 76q77 0 141 -43l-43 -75q-45 34 -102 34q-68 0 -116 -52t-48 -126q0 -79 48.5 -128.5t116.5 -49.5q59 0 106 35zM144 726l54 36l93 -129l93 129l54 -36l-104 -157h-88z" />
    <glyph glyph-name="Dcaron" unicode="&#x10e;" horiz-adv-x="720" 
d="M95 0v700h189q55 0 107.5 -11.5t101.5 -38t86 -65.5t59 -99t22 -133q0 -93 -33 -163.5t-89.5 -110.5t-122.5 -59.5t-141 -19.5h-179zM558 344q0 131 -76.5 200.5t-215.5 69.5h-75v-528h33q161 0 247.5 59.5t86.5 198.5zM372 752h-95l-107 134l55 42l102 -116l101 116
l54 -42z" />
    <glyph glyph-name="dcaron" unicode="&#x10f;" horiz-adv-x="626" 
d="M292 -12q-107 0 -178.5 76t-71.5 186q0 104 70.5 183t181.5 79q92 0 157 -67v305h91v-750h-91v67q-26 -38 -69 -58.5t-90 -20.5zM304 72q43 0 85.5 25.5t61.5 68.5v186q-25 36 -65 56t-80 20q-82 0 -126.5 -54t-44.5 -126t47 -124t122 -52zM648 550h-76l40 200h89z" />
    <glyph glyph-name="Dcroat" unicode="&#x110;" horiz-adv-x="720" 
d="M95 0v321h-70v79h70v300h189q55 0 107.5 -11.5t101.5 -38t86 -65.5t59 -99t22 -133q0 -93 -33 -163.5t-89.5 -110.5t-122.5 -59.5t-141 -19.5h-179zM558 344q0 131 -76.5 200.5t-215.5 69.5h-75v-214h120v-79h-120v-235h33q161 0 247.5 59.5t86.5 198.5z" />
    <glyph glyph-name="dcroat" unicode="&#x111;" horiz-adv-x="626" 
d="M292 -12q-107 0 -178.5 76t-71.5 186q0 104 70.5 183t181.5 79q92 0 157 -67v143h-164v72h164v90h91v-90h70v-72h-70v-588h-91v67q-26 -38 -69 -58.5t-90 -20.5zM304 72q43 0 85.5 25.5t61.5 68.5v186q-25 36 -65 56t-80 20q-82 0 -126.5 -54t-44.5 -126t47 -124t122 -52
z" />
    <glyph glyph-name="Emacron" unicode="&#x112;" horiz-adv-x="580" 
d="M515 0h-420v700h420v-86h-324v-210h324v-86h-324v-232h324v-86zM478 774h-330v71h330v-71z" />
    <glyph glyph-name="emacron" unicode="&#x113;" horiz-adv-x="560" 
d="M514 227h-381q5 -68 48.5 -114.5t112.5 -46.5q106 0 149 81l66 -42q-73 -117 -219 -117q-116 0 -182 74t-66 188q0 111 71.5 186.5t176.5 75.5q99 0 163.5 -66t64.5 -167q0 -26 -4 -52zM291 434q-58 0 -97.5 -37.5t-53.5 -96.5h284q-3 55 -40.5 94.5t-92.5 39.5zM438 608
h-296v70h296v-70z" />
    <glyph glyph-name="Ebreve" unicode="&#x114;" horiz-adv-x="580" 
d="M515 0h-420v700h420v-86h-324v-210h324v-86h-324v-232h324v-86zM407 894h64v-6q0 -59 -41 -95.5t-102 -36.5q-65 0 -104 36t-39 96v6h67v-6q0 -32 21 -50t55 -18q33 0 56 18t23 50v6z" />
    <glyph glyph-name="ebreve" unicode="&#x115;" horiz-adv-x="560" 
d="M514 227h-381q5 -68 48.5 -114.5t112.5 -46.5q106 0 149 81l66 -42q-73 -117 -219 -117q-116 0 -182 74t-66 188q0 111 71.5 186.5t176.5 75.5q99 0 163.5 -66t64.5 -167q0 -26 -4 -52zM291 434q-58 0 -97.5 -37.5t-53.5 -96.5h284q-3 55 -40.5 94.5t-92.5 39.5zM369 725
h64v-14q0 -60 -41.5 -101.5t-101.5 -41.5t-101.5 41.5t-41.5 101.5v14h66v-14q0 -33 22 -56t55 -23q32 0 55.5 23t23.5 56v14z" />
    <glyph glyph-name="Edotaccent" unicode="&#x116;" horiz-adv-x="580" 
d="M515 0h-420v700h420v-86h-324v-210h324v-86h-324v-232h324v-86zM366 764h-102v111h102v-111z" />
    <glyph glyph-name="edotaccent" unicode="&#x117;" horiz-adv-x="560" 
d="M514 227h-381q5 -68 48.5 -114.5t112.5 -46.5q106 0 149 81l66 -42q-73 -117 -219 -117q-116 0 -182 74t-66 188q0 111 71.5 186.5t176.5 75.5q99 0 163.5 -66t64.5 -167q0 -26 -4 -52zM291 434q-58 0 -97.5 -37.5t-53.5 -96.5h284q-3 55 -40.5 94.5t-92.5 39.5zM330 598
h-91v102h91v-102z" />
    <glyph glyph-name="Eogonek" unicode="&#x118;" horiz-adv-x="580" 
d="M515 86v-86q-60 -8 -90 -42.5t-30 -67.5q0 -44 42 -44q22 0 44 14l32 -51q-34 -31 -89 -31q-45 0 -78 26.5t-33 72.5q0 80 84 123h-302v700h420v-86h-324v-210h324v-86h-324v-232h324z" />
    <glyph glyph-name="eogonek" unicode="&#x119;" horiz-adv-x="560" 
d="M291 434q-58 0 -97.5 -37.5t-53.5 -96.5h284q-3 55 -40.5 94.5t-92.5 39.5zM514 227h-381q5 -68 48.5 -114.5t112.5 -46.5q106 0 149 81l66 -42q-49 -80 -129 -105q-53 -17 -78 -47t-25 -63q0 -44 42 -44q22 0 44 14l32 -51q-34 -31 -89 -31q-45 0 -78 26.5t-33 72.5
q0 69 70 114q-103 10 -163 82t-60 177q0 111 71.5 186.5t176.5 75.5q99 0 163.5 -66t64.5 -167q0 -26 -4 -52z" />
    <glyph glyph-name="Ecaron" unicode="&#x11a;" horiz-adv-x="580" 
d="M515 0h-420v700h420v-86h-324v-210h324v-86h-324v-232h324v-86zM356 752h-95l-107 134l55 42l102 -116l101 116l54 -42z" />
    <glyph glyph-name="ecaron" unicode="&#x11b;" horiz-adv-x="560" 
d="M514 227h-381q5 -68 48.5 -114.5t112.5 -46.5q106 0 149 81l66 -42q-73 -117 -219 -117q-116 0 -182 74t-66 188q0 111 71.5 186.5t176.5 75.5q99 0 163.5 -66t64.5 -167q0 -26 -4 -52zM291 434q-58 0 -97.5 -37.5t-53.5 -96.5h284q-3 55 -40.5 94.5t-92.5 39.5zM143 726
l54 36l93 -129l93 129l54 -36l-104 -157h-88z" />
    <glyph glyph-name="Gcircumflex" unicode="&#x11c;" horiz-adv-x="803" 
d="M627 302h-178v86h274v-266q-50 -64 -125.5 -99t-161.5 -35q-163 0 -269.5 100.5t-106.5 261.5q0 154 109.5 258t266.5 104q79 0 149.5 -33t121.5 -91l-68 -56q-38 43 -91.5 68.5t-111.5 25.5q-119 0 -196.5 -78t-77.5 -198q0 -126 76 -201t198 -75q115 0 191 73v155z
M387 922h95l107 -134l-54 -42l-102 116l-101 -116l-55 42z" />
    <glyph glyph-name="gcircumflex" unicode="&#x11d;" horiz-adv-x="620" 
d="M542 500v-472q0 -80 -26 -131q-62 -119 -226 -119q-131 0 -221 66l35 78q36 -26 87 -43t97 -17q71 0 117 36.5t46 111.5v69q-26 -38 -69.5 -58.5t-90.5 -20.5q-106 0 -177.5 74t-71.5 182q0 103 70.5 179.5t181.5 76.5q92 0 157 -67v55h91zM451 177v175q-25 36 -65 56
t-80 20q-82 0 -126.5 -52t-44.5 -122t47 -120t121 -50q43 0 86 25t62 68zM439 602l-53 -36l-93 129l-93 -129l-55 36l104 157h88z" />
    <glyph glyph-name="Gbreve" unicode="&#x11e;" horiz-adv-x="803" 
d="M627 302h-178v86h274v-266q-50 -64 -125.5 -99t-161.5 -35q-163 0 -269.5 100.5t-106.5 261.5q0 154 109.5 258t266.5 104q79 0 149.5 -33t121.5 -91l-68 -56q-38 43 -91.5 68.5t-111.5 25.5q-119 0 -196.5 -78t-77.5 -198q0 -126 76 -201t198 -75q115 0 191 73v155z
M514 894h64v-6q0 -59 -41 -95.5t-102 -36.5q-65 0 -104 36t-39 96v6h67v-6q0 -32 21 -50t55 -18q33 0 56 18t23 50v6z" />
    <glyph glyph-name="gbreve" unicode="&#x11f;" horiz-adv-x="620" 
d="M542 500v-472q0 -80 -26 -131q-62 -119 -226 -119q-131 0 -221 66l35 78q36 -26 87 -43t97 -17q71 0 117 36.5t46 111.5v69q-26 -38 -69.5 -58.5t-90.5 -20.5q-106 0 -177.5 74t-71.5 182q0 103 70.5 179.5t181.5 76.5q92 0 157 -67v55h91zM451 177v175q-25 36 -65 56
t-80 20q-82 0 -126.5 -52t-44.5 -122t47 -120t121 -50q43 0 86 25t62 68zM382 725h64v-14q0 -60 -41.5 -101.5t-101.5 -41.5t-101.5 41.5t-41.5 101.5v14h66v-14q0 -33 22 -56t55 -23q32 0 55.5 23t23.5 56v14z" />
    <glyph glyph-name="Gdotaccent" unicode="&#x120;" horiz-adv-x="803" 
d="M627 302h-178v86h274v-266q-50 -64 -125.5 -99t-161.5 -35q-163 0 -269.5 100.5t-106.5 261.5q0 154 109.5 258t266.5 104q79 0 149.5 -33t121.5 -91l-68 -56q-38 43 -91.5 68.5t-111.5 25.5q-119 0 -196.5 -78t-77.5 -198q0 -126 76 -201t198 -75q115 0 191 73v155z
M472 764h-102v111h102v-111z" />
    <glyph glyph-name="gdotaccent" unicode="&#x121;" horiz-adv-x="620" 
d="M542 500v-472q0 -80 -26 -131q-62 -119 -226 -119q-131 0 -221 66l35 78q36 -26 87 -43t97 -17q71 0 117 36.5t46 111.5v69q-26 -38 -69.5 -58.5t-90.5 -20.5q-106 0 -177.5 74t-71.5 182q0 103 70.5 179.5t181.5 76.5q92 0 157 -67v55h91zM451 177v175q-25 36 -65 56
t-80 20q-82 0 -126.5 -52t-44.5 -122t47 -120t121 -50q43 0 86 25t62 68zM338 598h-91v102h91v-102z" />
    <glyph glyph-name="Gcommaaccent" unicode="&#x122;" horiz-adv-x="803" 
d="M627 302h-178v86h274v-266q-50 -64 -125.5 -99t-161.5 -35q-163 0 -269.5 100.5t-106.5 261.5q0 154 109.5 258t266.5 104q79 0 149.5 -33t121.5 -91l-68 -56q-38 43 -91.5 68.5t-111.5 25.5q-119 0 -196.5 -78t-77.5 -198q0 -126 76 -201t198 -75q115 0 191 73v155z
M407 -231h-75l36 175h85z" />
    <glyph glyph-name="gcommaaccent" unicode="&#x123;" horiz-adv-x="620" 
d="M305 746h79l-37 -179h-89zM542 500v-472q0 -80 -26 -131q-62 -119 -226 -119q-131 0 -221 66l35 78q36 -26 87 -43t97 -17q71 0 117 36.5t46 111.5v69q-26 -38 -69.5 -58.5t-90.5 -20.5q-106 0 -177.5 74t-71.5 182q0 103 70.5 179.5t181.5 76.5q92 0 157 -67v55h91z
M451 177v175q-25 36 -65 56t-80 20q-82 0 -126.5 -52t-44.5 -122t47 -120t121 -50q43 0 86 25t62 68z" />
    <glyph glyph-name="Hcircumflex" unicode="&#x124;" horiz-adv-x="752" 
d="M657 0h-96v318h-370v-318h-96v700h96v-296h370v296h96v-700zM330 922h95l107 -134l-54 -42l-102 116l-101 -116l-55 42z" />
    <glyph glyph-name="hcircumflex" unicode="&#x125;" horiz-adv-x="606" 
d="M175 750v-332q59 94 163 94q98 0 145 -63q45 -61 45 -189v-260h-91v250q0 99 -26 138q-27 40 -87 40q-42 0 -81.5 -26.5t-67.5 -69.5v-332h-91v750h91zM82 922h95l107 -134l-54 -42l-102 116l-101 -116l-55 42z" />
    <glyph glyph-name="Hbar" unicode="&#x126;" horiz-adv-x="752" 
d="M657 0h-96v318h-370v-318h-96v516h-90v75h90v109h96v-109h370v109h96v-109h90v-75h-90v-516zM191 404h370v112h-370v-112z" />
    <glyph glyph-name="hbar" unicode="&#x127;" horiz-adv-x="606" 
d="M175 750v-90h164v-72h-164v-170q59 94 163 94q98 0 145 -63q45 -61 45 -189v-260h-91v250q0 99 -26 138q-27 40 -87 40q-42 0 -81.5 -26.5t-67.5 -69.5v-332h-91v588h-70v72h70v90h91z" />
    <glyph glyph-name="Itilde" unicode="&#x128;" horiz-adv-x="286" 
d="M191 0h-96v700h96v-700zM249 866l65 7q2 -12 2 -27q0 -43 -27.5 -69t-70.5 -26q-30 0 -57.5 16t-50 32t-40.5 16q-31 0 -33 -30q0 -7 1 -10l-65 -7q-2 12 -2 27q0 43 27.5 69t70.5 26q37 0 83 -32t65 -32q31 0 33 30q0 7 -1 10z" />
    <glyph glyph-name="itilde" unicode="&#x129;" horiz-adv-x="259" 
d="M175 0h-91v500h91v-500zM300 700q2 -12 2 -23q0 -43 -27.5 -69t-70.5 -26q-40 0 -84.5 32t-63.5 32q-31 0 -33 -30q0 -7 1 -10l-65 -7q-2 12 -2 23q0 43 27.5 69t70.5 26q38 0 83.5 -32t64.5 -32q31 0 33 30q0 7 -1 10z" />
    <glyph glyph-name="Imacron" unicode="&#x12a;" horiz-adv-x="286" 
d="M191 0h-96v700h96v-700zM308 774h-330v71h330v-71z" />
    <glyph glyph-name="imacron" unicode="&#x12b;" horiz-adv-x="259" 
d="M175 0h-91v500h91v-500zM278 608h-296v70h296v-70z" />
    <glyph glyph-name="Ibreve" unicode="&#x12c;" horiz-adv-x="286" 
d="M191 0h-96v700h96v-700zM222 894h64v-6q0 -59 -41 -95.5t-102 -36.5q-65 0 -104 36t-39 96v6h67v-6q0 -32 21 -50t55 -18q33 0 56 18t23 50v6z" />
    <glyph glyph-name="ibreve" unicode="&#x12d;" horiz-adv-x="259" 
d="M175 0h-91v500h91v-500zM209 725h64v-14q0 -60 -41.5 -101.5t-101.5 -41.5t-101.5 41.5t-41.5 101.5v14h66v-14q0 -33 22 -56t55 -23q32 0 55.5 23t23.5 56v14z" />
    <glyph glyph-name="Iogonek" unicode="&#x12e;" horiz-adv-x="286" 
d="M191 700v-700q-53 -15 -75.5 -46t-22.5 -64q0 -44 42 -44q22 0 44 14l32 -51q-34 -31 -89 -31q-45 0 -78 26.5t-33 72.5q0 39 22 72.5t62 52.5v698h96z" />
    <glyph glyph-name="iogonek" unicode="&#x12f;" horiz-adv-x="259" 
d="M175 598h-91v102h91v-102zM175 500v-500q-93 -28 -93 -110q0 -44 42 -44q22 0 44 14l32 -51q-34 -31 -89 -31q-45 0 -78 26.5t-33 72.5q0 85 84 125v498h91z" />
    <glyph glyph-name="Idotaccent" unicode="&#x130;" horiz-adv-x="286" 
d="M194 764h-102v111h102v-111zM191 0h-96v700h96v-700z" />
    <glyph glyph-name="dotlessi" unicode="&#x131;" horiz-adv-x="259" 
d="M175 0h-91v500h91v-500z" />
    <glyph glyph-name="IJ" unicode="&#x132;" horiz-adv-x="642" 
d="M191 0h-96v700h96v-700zM552 700v-523q0 -86 -32 -133q-39 -56 -134 -56q-48 0 -101 22l26 78q30 -14 61 -14q50 0 67 24q17 22 17 92v510h96z" />
    <glyph glyph-name="ij" unicode="&#x133;" horiz-adv-x="526" 
d="M175 0h-91v500h91v-500zM175 598h-91v102h91v-102zM442 598h-91v102h91v-102zM442 500v-544q0 -59 -14 -95q-32 -83 -133 -83q-56 0 -96 22l26 74q26 -14 56 -14q44 0 57 28t13 86v526h91z" />
    <glyph glyph-name="Jcircumflex" unicode="&#x134;" horiz-adv-x="336" 
d="M251 700v-523q0 -86 -32 -133q-39 -56 -134 -56q-48 0 -101 22l26 78q30 -14 61 -14q50 0 67 24q17 22 17 92v510h96zM157 922h95l107 -134l-54 -42l-102 116l-101 -116l-55 42z" />
    <glyph glyph-name="jcircumflex" unicode="&#x135;" horiz-adv-x="267" 
d="M183 500v-544q0 -59 -14 -95q-32 -83 -133 -83q-56 0 -96 22l26 74q26 -14 56 -14q44 0 57 28t13 86v526h91zM284 602l-53 -36l-93 129l-93 -129l-55 36l104 157h88z" />
    <glyph glyph-name="Kcommaaccent" unicode="&#x136;" horiz-adv-x="621" 
d="M602 700l-233 -276l247 -424h-112l-200 346l-113 -135v-211h-96v700h96v-357l294 357h117zM327 -231h-75l36 175h85z" />
    <glyph glyph-name="kcommaaccent" unicode="&#x137;" horiz-adv-x="514" 
d="M508 0h-111l-143 224l-79 -92v-132h-91v750h91v-500l2 -1l202 251h112l-175 -204zM268 -231h-75l36 175h85z" />
    <glyph glyph-name="kgreenlandic" unicode="&#x138;" horiz-adv-x="514" 
d="M84 500h91v-250l2 -1l202 251h112l-175 -204l192 -296h-111l-143 224l-79 -92v-132h-91v500z" />
    <glyph glyph-name="Lacute" unicode="&#x139;" horiz-adv-x="500" 
d="M495 0h-400v700h96v-614h304v-86zM300 866l-175 -126l-42 54l165 138z" />
    <glyph glyph-name="lacute" unicode="&#x13a;" horiz-adv-x="259" 
d="M175 750v-750h-91v750h91zM284 910l-175 -126l-42 54l165 138z" />
    <glyph glyph-name="Lcommaaccent" unicode="&#x13b;" horiz-adv-x="500" 
d="M495 0h-400v700h96v-614h304v-86zM305 -231h-75l36 175h85z" />
    <glyph glyph-name="lcommaaccent" unicode="&#x13c;" horiz-adv-x="259" 
d="M175 750v-750h-91v750h91zM124 -231h-75l36 175h85z" />
    <glyph glyph-name="Lcaron" unicode="&#x13d;" horiz-adv-x="500" 
d="M495 0h-400v700h96v-614h304v-86zM332 500h-76l40 200h89z" />
    <glyph glyph-name="lcaron" unicode="&#x13e;" horiz-adv-x="259" 
d="M175 750v-750h-91v750h91zM281 550h-76l40 200h89z" />
    <glyph glyph-name="Ldot" unicode="&#x13f;" horiz-adv-x="500" 
d="M495 0h-400v700h96v-614h304v-86zM447 314h-102v111h102v-111z" />
    <glyph glyph-name="ldot" unicode="&#x140;" horiz-adv-x="319" 
d="M175 750v-750h-91v750h91zM312 314h-102v111h102v-111z" />
    <glyph glyph-name="Lslash" unicode="&#x141;" horiz-adv-x="500" 
d="M495 0h-400v281l-90 -58v89l90 58v330h96v-287l149 97v-89l-149 -97v-238h304v-86z" />
    <glyph glyph-name="lslash" unicode="&#x142;" horiz-adv-x="259" 
d="M175 750v-303l70 46v-88l-70 -46v-359h-91v321l-66 -43v86l66 43v343h91z" />
    <glyph glyph-name="Nacute" unicode="&#x143;" horiz-adv-x="755" 
d="M660 0h-85l-384 522v-522h-96v700h84l385 -522v522h96v-700zM541 866l-175 -126l-42 54l165 138z" />
    <glyph glyph-name="nacute" unicode="&#x144;" horiz-adv-x="606" 
d="M84 500h91v-82q59 94 163 94q98 0 145 -63q45 -61 45 -189v-260h-91v250q0 99 -26 138q-27 40 -87 40q-42 0 -81.5 -26.5t-67.5 -69.5v-332h-91v500zM452 726l-134 -160l-55 42l123 169z" />
    <glyph glyph-name="Ncommaaccent" unicode="&#x145;" horiz-adv-x="755" 
d="M660 0h-85l-384 522v-522h-96v700h84l385 -522v522h96v-700zM387 -231h-75l36 175h85z" />
    <glyph glyph-name="ncommaaccent" unicode="&#x146;" horiz-adv-x="606" 
d="M84 500h91v-82q59 94 163 94q98 0 145 -63q45 -61 45 -189v-260h-91v250q0 99 -26 138q-27 40 -87 40q-42 0 -81.5 -26.5t-67.5 -69.5v-332h-91v500zM303 -231h-75l36 175h85z" />
    <glyph glyph-name="Ncaron" unicode="&#x147;" horiz-adv-x="755" 
d="M660 0h-85l-384 522v-522h-96v700h84l385 -522v522h96v-700zM431 752h-95l-107 134l55 42l102 -116l101 116l54 -42z" />
    <glyph glyph-name="ncaron" unicode="&#x148;" horiz-adv-x="606" 
d="M84 500h91v-82q59 94 163 94q98 0 145 -63q45 -61 45 -189v-260h-91v250q0 99 -26 138q-27 40 -87 40q-42 0 -81.5 -26.5t-67.5 -69.5v-332h-91v500zM177 726l54 36l93 -129l93 129l54 -36l-104 -157h-88z" />
    <glyph glyph-name="napostrophe" unicode="&#x149;" horiz-adv-x="632" 
d="M71 500h-87l51 250h102zM110 500h91v-82q59 94 163 94q98 0 145 -63q45 -61 45 -189v-260h-91v250q0 99 -26 138q-27 40 -87 40q-42 0 -81.5 -26.5t-67.5 -69.5v-332h-91v500z" />
    <glyph glyph-name="Eng" unicode="&#x14a;" horiz-adv-x="755" 
d="M660 700v-733q0 -86 -32 -133q-39 -56 -134 -56q-48 0 -101 22l26 78q30 -14 61 -14q50 0 67 24q17 22 17 92v35l-373 507v-522h-96v700h84l385 -522v522h96z" />
    <glyph glyph-name="eng" unicode="&#x14b;" horiz-adv-x="606" 
d="M528 260v-304q0 -59 -14 -95q-32 -83 -133 -83q-56 0 -96 22l26 74q26 -14 56 -14q44 0 57 28t13 86v276q0 99 -26 138q-27 40 -87 40q-42 0 -81.5 -26.5t-67.5 -69.5v-332h-91v500h91v-82q59 94 163 94q98 0 145 -63q45 -61 45 -189z" />
    <glyph glyph-name="Omacron" unicode="&#x14c;" horiz-adv-x="840" 
d="M678 350q0 117 -73.5 196.5t-184.5 79.5t-184.5 -79.5t-73.5 -196.5t73.5 -196.5t184.5 -79.5t184.5 79.5t73.5 196.5zM780 350q0 -151 -104 -256.5t-256 -105.5t-256 105.5t-104 256.5t104 256.5t256 105.5t256 -105.5t104 -256.5zM585 774h-330v71h330v-71z" />
    <glyph glyph-name="omacron" unicode="&#x14d;" horiz-adv-x="594" 
d="M297 512q109 0 182 -76t73 -186t-73 -186t-182 -76t-182 76t-73 186t73 186t182 76zM459 250q0 74 -46 126t-116 52t-116 -52t-46 -126t46 -126t116 -52t116 52t46 126zM445 608h-296v70h296v-70z" />
    <glyph glyph-name="Obreve" unicode="&#x14e;" horiz-adv-x="840" 
d="M678 350q0 117 -73.5 196.5t-184.5 79.5t-184.5 -79.5t-73.5 -196.5t73.5 -196.5t184.5 -79.5t184.5 79.5t73.5 196.5zM780 350q0 -151 -104 -256.5t-256 -105.5t-256 105.5t-104 256.5t104 256.5t256 105.5t256 -105.5t104 -256.5zM499 894h64v-6q0 -59 -41 -95.5
t-102 -36.5q-65 0 -104 36t-39 96v6h67v-6q0 -32 21 -50t55 -18q33 0 56 18t23 50v6z" />
    <glyph glyph-name="obreve" unicode="&#x14f;" horiz-adv-x="594" 
d="M297 512q109 0 182 -76t73 -186t-73 -186t-182 -76t-182 76t-73 186t73 186t182 76zM459 250q0 74 -46 126t-116 52t-116 -52t-46 -126t46 -126t116 -52t116 52t46 126zM386 725h64v-14q0 -60 -41.5 -101.5t-101.5 -41.5t-101.5 41.5t-41.5 101.5v14h66v-14q0 -33 22 -56
t55 -23q32 0 55.5 23t23.5 56v14z" />
    <glyph glyph-name="Ohungarumlaut" unicode="&#x150;" horiz-adv-x="840" 
d="M678 350q0 117 -73.5 196.5t-184.5 79.5t-184.5 -79.5t-73.5 -196.5t73.5 -196.5t184.5 -79.5t184.5 79.5t73.5 196.5zM780 350q0 -151 -104 -256.5t-256 -105.5t-256 105.5t-104 256.5t104 256.5t256 105.5t256 -105.5t104 -256.5zM468 866l-175 -126l-42 54l165 138z
M678 861l-168 -121l-42 54l158 133z" />
    <glyph glyph-name="ohungarumlaut" unicode="&#x151;" horiz-adv-x="594" 
d="M297 512q109 0 182 -76t73 -186t-73 -186t-182 -76t-182 76t-73 186t73 186t182 76zM459 250q0 74 -46 126t-116 52t-116 -52t-46 -126t46 -126t116 -52t116 52t46 126zM523 726l-135 -161l-56 43l125 169zM370 741l-140 -166l-55 40l128 178z" />
    <glyph glyph-name="OE" unicode="&#x152;" horiz-adv-x="1063" 
d="M998 0h-420v33q-74 -45 -158 -45q-152 0 -256 105.5t-104 256.5t104 256.5t256 105.5q84 0 158 -45v33h420v-86h-324v-210h324v-86h-324v-232h324v-86zM420 74q90 0 158 54v444q-68 54 -158 54q-111 0 -184.5 -79.5t-73.5 -196.5t73.5 -196.5t184.5 -79.5z" />
    <glyph glyph-name="oe" unicode="&#x153;" horiz-adv-x="973" 
d="M927 227h-381q5 -68 48.5 -114.5t112.5 -46.5q106 0 149 81l66 -42q-73 -117 -219 -117q-137 0 -203 108q-73 -108 -203 -108q-109 0 -182 76t-73 186t73 186.5t182 76.5q65 0 118.5 -30t87.5 -82q33 52 85 82t115 30q99 0 163.5 -66t64.5 -167q0 -27 -4 -53zM459 251
q0 73 -46 125.5t-115 52.5q-70 0 -116.5 -52.5t-46.5 -125.5q0 -74 46.5 -126.5t116.5 -52.5q69 0 115 52.5t46 126.5zM704 435q-58 0 -97.5 -37.5t-53.5 -96.5h284q-3 55 -40.5 94.5t-92.5 39.5z" />
    <glyph glyph-name="Racute" unicode="&#x154;" horiz-adv-x="613" 
d="M593 0h-120l-210 296h-72v-296h-96v700h208q58 0 110 -19t90.5 -66.5t38.5 -115.5q0 -83 -49.5 -132.5t-121.5 -64.5zM440 496q0 53 -39 85.5t-103 32.5h-107v-232h87q74 0 118 28.5t44 85.5zM438 866l-175 -126l-42 54l165 138z" />
    <glyph glyph-name="racute" unicode="&#x155;" horiz-adv-x="357" 
d="M175 500v-83q53 95 129 95q26 0 54 -6l-17 -97q-21 10 -47 10q-71 0 -119 -84v-335h-91v500h91zM344 726l-134 -160l-55 42l123 169z" />
    <glyph glyph-name="Rcommaaccent" unicode="&#x156;" horiz-adv-x="613" 
d="M593 0h-120l-210 296h-72v-296h-96v700h208q58 0 110 -19t90.5 -66.5t38.5 -115.5q0 -83 -49.5 -132.5t-121.5 -64.5zM440 496q0 53 -39 85.5t-103 32.5h-107v-232h87q74 0 118 28.5t44 85.5zM321 -231h-75l36 175h85z" />
    <glyph glyph-name="rcommaaccent" unicode="&#x157;" horiz-adv-x="357" 
d="M175 500v-83q53 95 129 95q26 0 54 -6l-17 -97q-21 10 -47 10q-71 0 -119 -84v-335h-91v500h91zM124 -231h-75l36 175h85z" />
    <glyph glyph-name="Rcaron" unicode="&#x158;" horiz-adv-x="613" 
d="M593 0h-120l-210 296h-72v-296h-96v700h208q58 0 110 -19t90.5 -66.5t38.5 -115.5q0 -83 -49.5 -132.5t-121.5 -64.5zM440 496q0 53 -39 85.5t-103 32.5h-107v-232h87q74 0 118 28.5t44 85.5zM336 752h-95l-107 134l55 42l102 -116l101 116l54 -42z" />
    <glyph glyph-name="rcaron" unicode="&#x159;" horiz-adv-x="357" 
d="M175 500v-83q53 95 129 95q26 0 54 -6l-17 -97q-21 10 -47 10q-71 0 -119 -84v-335h-91v500h91zM70 726l54 36l93 -129l93 129l54 -36l-104 -157h-88z" />
    <glyph glyph-name="Sacute" unicode="&#x15a;" horiz-adv-x="609" 
d="M458 570q-26 24 -66.5 40t-80.5 16q-57 0 -91 -25.5t-34 -71.5q0 -18 9 -33t19 -24.5t34 -20.5t38 -16.5t46 -16.5q47 -17 76.5 -30.5t65 -38.5t53 -60.5t17.5 -82.5q0 -56 -23 -100t-60 -68.5t-79 -37t-84 -12.5q-147 0 -253 105l68 64q48 -47 90 -65t96 -18
q60 0 101.5 30.5t41.5 90.5q0 28 -11.5 48.5t-37.5 36.5t-47 24.5t-60 22.5q-42 15 -72 29t-61 36.5t-47.5 54.5t-16.5 72q0 94 60 143.5t151 49.5q122 0 217 -72zM466 866l-175 -126l-42 54l165 138z" />
    <glyph glyph-name="sacute" unicode="&#x15b;" horiz-adv-x="451" 
d="M382 457l-54 -58q-43 37 -99 37q-34 0 -54.5 -18t-20.5 -48q0 -18 16 -33t32 -22.5t48 -20.5q30 -12 51 -22.5t45.5 -28t37 -42.5t12.5 -56q0 -79 -52 -118t-129 -39q-112 0 -172 78l64 51q50 -53 109 -53q39 0 64.5 20t25.5 57q0 18 -15.5 33.5t-31.5 23t-49 20.5
q-35 14 -52 22t-42.5 25.5t-37 41.5t-11.5 56q0 72 47 110.5t114 38.5q93 0 154 -55zM384 726l-134 -160l-55 42l123 169z" />
    <glyph glyph-name="Scircumflex" unicode="&#x15c;" horiz-adv-x="609" 
d="M458 570q-26 24 -66.5 40t-80.5 16q-57 0 -91 -25.5t-34 -71.5q0 -18 9 -33t19 -24.5t34 -20.5t38 -16.5t46 -16.5q47 -17 76.5 -30.5t65 -38.5t53 -60.5t17.5 -82.5q0 -56 -23 -100t-60 -68.5t-79 -37t-84 -12.5q-147 0 -253 105l68 64q48 -47 90 -65t96 -18
q60 0 101.5 30.5t41.5 90.5q0 28 -11.5 48.5t-37.5 36.5t-47 24.5t-60 22.5q-42 15 -72 29t-61 36.5t-47.5 54.5t-16.5 72q0 94 60 143.5t151 49.5q122 0 217 -72zM265 922h95l107 -134l-54 -42l-102 116l-101 -116l-55 42z" />
    <glyph glyph-name="scircumflex" unicode="&#x15d;" horiz-adv-x="451" 
d="M382 457l-54 -58q-43 37 -99 37q-34 0 -54.5 -18t-20.5 -48q0 -18 16 -33t32 -22.5t48 -20.5q30 -12 51 -22.5t45.5 -28t37 -42.5t12.5 -56q0 -79 -52 -118t-129 -39q-112 0 -172 78l64 51q50 -53 109 -53q39 0 64.5 20t25.5 57q0 18 -15.5 33.5t-31.5 23t-49 20.5
q-35 14 -52 22t-42.5 25.5t-37 41.5t-11.5 56q0 72 47 110.5t114 38.5q93 0 154 -55zM381 602l-53 -36l-93 129l-93 -129l-55 36l104 157h88z" />
    <glyph glyph-name="Scedilla" unicode="&#x15e;" horiz-adv-x="609" 
d="M458 570q-26 24 -66.5 40t-80.5 16q-57 0 -91 -25.5t-34 -71.5q0 -18 9 -33t19 -24.5t34 -20.5t38 -16.5t46 -16.5q47 -17 76.5 -30.5t65 -38.5t53 -60.5t17.5 -82.5q0 -54 -21.5 -97t-57 -68t-75 -38t-81.5 -15l-23 -53l2 -1q18 16 48 16q39 0 63 -27t24 -66
q0 -41 -31.5 -71.5t-77.5 -30.5q-70 0 -103 59l57 28q12 -32 46 -32q19 0 31 13t12 31q0 19 -11.5 33t-31.5 14q-28 0 -41 -24l-62 33l38 81q-115 13 -204 102l68 64q48 -47 90 -65t96 -18q60 0 101.5 30.5t41.5 90.5q0 28 -11.5 48.5t-37.5 36.5t-47 24.5t-60 22.5
q-42 15 -72 29t-61 36.5t-47.5 54.5t-16.5 72q0 94 60 143.5t151 49.5q122 0 217 -72z" />
    <glyph glyph-name="scedilla" unicode="&#x15f;" horiz-adv-x="451" 
d="M382 457l-54 -58q-43 37 -99 37q-34 0 -54.5 -18t-20.5 -48q0 -18 16 -33t32 -22.5t48 -20.5q30 -12 51 -22.5t45.5 -28t37 -42.5t12.5 -56q0 -75 -46.5 -113.5t-118.5 -42.5l-20 -54l1 -1q22 16 48 16q35 0 61 -26.5t26 -66.5q0 -41 -31.5 -71.5t-77.5 -30.5
q-70 0 -103 59l57 28q12 -32 46 -32q19 0 31 13t12 31q0 20 -12.5 33.5t-32.5 13.5q-28 0 -39 -24l-61 32l34 83q-82 15 -127 74l64 51q50 -53 109 -53q39 0 64.5 20t25.5 57q0 18 -15.5 33.5t-31.5 23t-49 20.5q-35 14 -52 22t-42.5 25.5t-37 41.5t-11.5 56q0 72 47 110.5
t114 38.5q93 0 154 -55z" />
    <glyph glyph-name="Scaron" unicode="&#x160;" horiz-adv-x="609" 
d="M458 570q-26 24 -66.5 40t-80.5 16q-57 0 -91 -25.5t-34 -71.5q0 -18 9 -33t19 -24.5t34 -20.5t38 -16.5t46 -16.5q47 -17 76.5 -30.5t65 -38.5t53 -60.5t17.5 -82.5q0 -56 -23 -100t-60 -68.5t-79 -37t-84 -12.5q-147 0 -253 105l68 64q48 -47 90 -65t96 -18
q60 0 101.5 30.5t41.5 90.5q0 28 -11.5 48.5t-37.5 36.5t-47 24.5t-60 22.5q-42 15 -72 29t-61 36.5t-47.5 54.5t-16.5 72q0 94 60 143.5t151 49.5q122 0 217 -72zM357 752h-95l-107 134l55 42l102 -116l101 116l54 -42z" />
    <glyph glyph-name="scaron" unicode="&#x161;" horiz-adv-x="451" 
d="M382 457l-54 -58q-43 37 -99 37q-34 0 -54.5 -18t-20.5 -48q0 -18 16 -33t32 -22.5t48 -20.5q30 -12 51 -22.5t45.5 -28t37 -42.5t12.5 -56q0 -79 -52 -118t-129 -39q-112 0 -172 78l64 51q50 -53 109 -53q39 0 64.5 20t25.5 57q0 18 -15.5 33.5t-31.5 23t-49 20.5
q-35 14 -52 22t-42.5 25.5t-37 41.5t-11.5 56q0 72 47 110.5t114 38.5q93 0 154 -55zM89 726l54 36l93 -129l93 129l54 -36l-104 -157h-88z" />
    <glyph glyph-name="uni0162" unicode="&#x162;" horiz-adv-x="488" 
d="M468 614h-176v-614h-19l-28 -65l2 -1q18 16 48 16q39 0 63 -27t24 -66q0 -41 -31.5 -71.5t-77.5 -30.5q-70 0 -103 59l57 28q12 -32 46 -32q19 0 31 13t12 31q0 19 -11.5 33t-31.5 14q-28 0 -41 -24l-62 33l42 90h-16v614h-176v86h448v-86z" />
    <glyph glyph-name="uni0163" unicode="&#x163;" horiz-adv-x="346" 
d="M320 420h-140v-226q0 -24 1 -39q2 -42 18 -63t52 -21q28 0 56 14l25 -73q-42 -22 -93 -22q-18 0 -27 2l-21 -57l1 -1q22 16 48 16q35 0 61 -26.5t26 -66.5q0 -41 -31.5 -71.5t-77.5 -30.5q-70 0 -103 59l57 28q12 -32 46 -32q19 0 31 13t12 31q0 20 -12.5 33.5
t-32.5 13.5q-28 0 -39 -24l-61 32l42 100q-36 19 -53 59q-16 37 -16 104v248h-67v80h67v120h91v-120h140v-80z" />
    <glyph glyph-name="Tcaron" unicode="&#x164;" horiz-adv-x="488" 
d="M468 614h-176v-614h-96v614h-176v86h448v-86zM290 752h-95l-107 134l55 42l102 -116l101 116l54 -42z" />
    <glyph glyph-name="tcaron" unicode="&#x165;" horiz-adv-x="346" 
d="M320 420h-140v-226q0 -24 1 -39q2 -42 18 -63t52 -21q28 0 56 14l25 -73q-42 -22 -93 -22q-99 0 -134 78q-16 37 -16 104v248h-67v80h67v120h91v-120h140v-80zM313 550h-76l40 200h89z" />
    <glyph glyph-name="Tbar" unicode="&#x166;" horiz-adv-x="488" 
d="M468 614h-176v-214h110v-79h-110v-321h-96v321h-110v79h110v214h-176v86h448v-86z" />
    <glyph glyph-name="tbar" unicode="&#x167;" horiz-adv-x="346" 
d="M320 228h-140v-34q0 -24 1 -39q2 -42 18 -63t52 -21q28 0 56 14l25 -73q-42 -22 -93 -22q-99 0 -134 78q-16 37 -16 104v56h-67v72h67v120h-67v80h67v120h91v-120h140v-80h-140v-120h140v-72z" />
    <glyph glyph-name="Utilde" unicode="&#x168;" horiz-adv-x="722" 
d="M632 700v-371q0 -169 -66 -255t-207 -86q-269 0 -269 341v371h96v-396q0 -114 46 -172t129 -58t129 58t46 172v396h96zM466 866l65 7q2 -12 2 -27q0 -43 -27.5 -69t-70.5 -26q-30 0 -57.5 16t-50 32t-40.5 16q-31 0 -33 -30q0 -7 1 -10l-65 -7q-2 12 -2 27q0 43 27.5 69
t70.5 26q37 0 83 -32t65 -32q31 0 33 30q0 7 -1 10z" />
    <glyph glyph-name="utilde" unicode="&#x169;" horiz-adv-x="606" 
d="M431 0v82q-59 -94 -163 -94q-98 0 -145 63q-45 61 -45 189v260h91v-250q0 -99 26 -138q27 -40 87 -40q42 0 81.5 26.5t67.5 69.5v332h91v-500h-91zM482 700q2 -12 2 -23q0 -43 -27.5 -69t-70.5 -26q-31 0 -58.5 16t-49.5 32t-40 16q-31 0 -33 -30q0 -7 1 -10l-65 -7
q-2 12 -2 23q0 43 27.5 69t70.5 26q38 0 83.5 -32t64.5 -32q31 0 33 30q0 7 -1 10z" />
    <glyph glyph-name="Umacron" unicode="&#x16a;" horiz-adv-x="722" 
d="M632 700v-371q0 -169 -66 -255t-207 -86q-269 0 -269 341v371h96v-396q0 -114 46 -172t129 -58t129 58t46 172v396h96zM526 774h-330v71h330v-71z" />
    <glyph glyph-name="umacron" unicode="&#x16b;" horiz-adv-x="606" 
d="M431 0v82q-59 -94 -163 -94q-98 0 -145 63q-45 61 -45 189v260h91v-250q0 -99 26 -138q27 -40 87 -40q42 0 81.5 26.5t67.5 69.5v332h91v-500h-91zM448 608h-296v70h296v-70z" />
    <glyph glyph-name="Ubreve" unicode="&#x16c;" horiz-adv-x="722" 
d="M632 700v-371q0 -169 -66 -255t-207 -86q-269 0 -269 341v371h96v-396q0 -114 46 -172t129 -58t129 58t46 172v396h96zM441 894h64v-6q0 -59 -41 -95.5t-102 -36.5q-65 0 -104 36t-39 96v6h67v-6q0 -32 21 -50t55 -18q33 0 56 18t23 50v6z" />
    <glyph glyph-name="ubreve" unicode="&#x16d;" horiz-adv-x="606" 
d="M431 0v82q-59 -94 -163 -94q-98 0 -145 63q-45 61 -45 189v260h91v-250q0 -99 26 -138q27 -40 87 -40q42 0 81.5 26.5t67.5 69.5v332h91v-500h-91zM384 725h64v-14q0 -60 -41.5 -101.5t-101.5 -41.5t-101.5 41.5t-41.5 101.5v14h66v-14q0 -33 22 -56t55 -23q32 0 55.5 23
t23.5 56v14z" />
    <glyph glyph-name="Uring" unicode="&#x16e;" horiz-adv-x="722" 
d="M632 700v-371q0 -169 -66 -255t-207 -86q-269 0 -269 341v371h96v-396q0 -114 46 -172t129 -58t129 58t46 172v396h96zM268 819q0 38 27.5 65.5t65.5 27.5t65.5 -27.5t27.5 -65.5t-27.5 -65.5t-65.5 -27.5t-65.5 27.5t-27.5 65.5zM317 819q0 -18 13 -31t31 -13t31 13
t13 31t-13 31t-31 13t-31 -13t-13 -31z" />
    <glyph glyph-name="uring" unicode="&#x16f;" horiz-adv-x="606" 
d="M431 0v82q-59 -94 -163 -94q-98 0 -145 63q-45 61 -45 189v260h91v-250q0 -99 26 -138q27 -40 87 -40q42 0 81.5 26.5t67.5 69.5v332h91v-500h-91zM211 653q0 38 27.5 65.5t65.5 27.5t65.5 -27.5t27.5 -65.5t-27.5 -65.5t-65.5 -27.5t-65.5 27.5t-27.5 65.5zM260 653
q0 -18 13 -31t31 -13t31 13t13 31t-13 31t-31 13t-31 -13t-13 -31z" />
    <glyph glyph-name="Uhungarumlaut" unicode="&#x170;" horiz-adv-x="722" 
d="M632 700v-371q0 -169 -66 -255t-207 -86q-269 0 -269 341v371h96v-396q0 -114 46 -172t129 -58t129 58t46 172v396h96zM409 866l-175 -126l-42 54l165 138zM619 861l-168 -121l-42 54l158 133z" />
    <glyph glyph-name="uhungarumlaut" unicode="&#x171;" horiz-adv-x="606" 
d="M431 0v82q-59 -94 -163 -94q-98 0 -145 63q-45 61 -45 189v260h91v-250q0 -99 26 -138q27 -40 87 -40q42 0 81.5 26.5t67.5 69.5v332h91v-500h-91zM512 726l-135 -161l-56 43l125 169zM359 741l-140 -166l-55 40l128 178z" />
    <glyph glyph-name="Uogonek" unicode="&#x172;" horiz-adv-x="722" 
d="M632 700v-371q0 -279 -179 -329q-39 -11 -71.5 -41.5t-32.5 -68.5q0 -44 42 -44q22 0 44 14l32 -51q-34 -31 -89 -31q-45 0 -78 26.5t-33 72.5q0 72 65 112q-242 16 -242 340v371h96v-396q0 -114 46 -172t129 -58t129 58t46 172v396h96z" />
    <glyph glyph-name="uogonek" unicode="&#x173;" horiz-adv-x="606" 
d="M337 -123q0 73 94 124v81q-59 -94 -163 -94q-98 0 -145 63q-45 61 -45 189v260h91v-250q0 -99 26 -138q27 -40 87 -40q42 0 81.5 26.5t67.5 69.5v332h91v-500q-52 -16 -77.5 -46t-25.5 -64q0 -44 42 -44q22 0 44 14l32 -51q-34 -31 -89 -31q-45 0 -78 26.5t-33 72.5z" />
    <glyph glyph-name="Wcircumflex" unicode="&#x174;" horiz-adv-x="886" 
d="M490 700l140 -528h2l147 528h102l-200 -700h-96l-140 533h-2l-152 -533h-94l-192 700h106l140 -528h2l147 528h90zM398 922h95l107 -134l-54 -42l-102 116l-101 -116l-55 42z" />
    <glyph glyph-name="wcircumflex" unicode="&#x175;" horiz-adv-x="733" 
d="M419 500l101 -385h3l102 385h92l-144 -500h-98l-107 389h-2l-110 -389h-102l-138 500h98l94 -385h2l111 385h98zM516 602l-53 -36l-93 129l-93 -129l-55 36l104 157h88z" />
    <glyph glyph-name="Ycircumflex" unicode="&#x176;" horiz-adv-x="555" 
d="M324 0h-96v304l-223 396h119l156 -294h3l155 294h112l-226 -401v-299zM232 922h95l107 -134l-54 -42l-102 116l-101 -116l-55 42z" />
    <glyph glyph-name="ycircumflex" unicode="&#x177;" horiz-adv-x="477" 
d="M6 500h101l130 -379h2l133 379h99l-281 -725l-80 31l79 209zM394 602l-53 -36l-93 129l-93 -129l-55 36l104 157h88z" />
    <glyph glyph-name="Ydieresis" unicode="&#x178;" horiz-adv-x="555" 
d="M324 0h-96v304l-223 396h119l156 -294h3l155 294h112l-226 -401v-299zM221 764h-100v111h100v-111zM451 764h-100v111h100v-111z" />
    <glyph glyph-name="Zacute" unicode="&#x179;" horiz-adv-x="547" 
d="M502 648l-329 -562h354v-86h-487v51l331 563h-323v86h454v-52zM415 866l-175 -126l-42 54l165 138z" />
    <glyph glyph-name="zacute" unicode="&#x17a;" horiz-adv-x="454" 
d="M59 41l221 379h-232v80h353v-40l-221 -380h238v-80h-359v41zM364 726l-134 -160l-55 42l123 169z" />
    <glyph glyph-name="Zdotaccent" unicode="&#x17b;" horiz-adv-x="547" 
d="M502 648l-329 -562h354v-86h-487v51l331 563h-323v86h454v-52zM320 764h-102v111h102v-111z" />
    <glyph glyph-name="zdotaccent" unicode="&#x17c;" horiz-adv-x="454" 
d="M59 41l221 379h-232v80h353v-40l-221 -380h238v-80h-359v41zM267 598h-91v102h91v-102z" />
    <glyph glyph-name="Zcaron" unicode="&#x17d;" horiz-adv-x="547" 
d="M502 648l-329 -562h354v-86h-487v51l331 563h-323v86h454v-52zM321 752h-95l-107 134l55 42l102 -116l101 116l54 -42z" />
    <glyph glyph-name="zcaron" unicode="&#x17e;" horiz-adv-x="454" 
d="M59 41l221 379h-232v80h353v-40l-221 -380h238v-80h-359v41zM91 726l54 36l93 -129l93 129l54 -36l-104 -157h-88z" />
    <glyph glyph-name="longs" unicode="&#x17f;" horiz-adv-x="308" 
d="M344 740l-26 -76q-30 14 -62 14q-50 0 -67 -25t-17 -90v-563h-92v572q0 94 39 142t126 48q46 0 99 -22z" />
    <glyph glyph-name="florin" unicode="&#x192;" 
d="M393 316h-131l-41 -363q-9 -79 -48 -122t-98 -43q-36 0 -81 12l20 79q26 -7 50 -7q35 0 48 23t19 77l39 344h-80v84h89l13 111q9 79 51.5 122t111.5 43q61 0 128 -32l-36 -76q-34 24 -83 24q-42 0 -59 -24t-23 -76l-11 -92h122v-84z" />
    <glyph glyph-name="Aringacute" unicode="&#x1fa;" horiz-adv-x="653" 
d="M638 0h-111l-55 149h-298l-54 -149h-105l271 700h84zM323 554l-117 -319h235l-117 319h-1zM462 1012l-188 -105l-34 56l180 118zM236 810q0 38 27.5 65.5t65.5 27.5t65.5 -27.5t27.5 -65.5t-27.5 -65.5t-65.5 -27.5t-65.5 27.5t-27.5 65.5zM285 810q0 -18 13 -31t31 -13
t31 13t13 31t-13 31t-31 13t-31 -13t-13 -31z" />
    <glyph glyph-name="aringacute" unicode="&#x1fb;" horiz-adv-x="546" 
d="M413 858l-179 -106l-32 50l175 114zM468 0h-87v53q-58 -65 -150 -65q-75 0 -126 38t-51 114q0 60 34 99t81.5 53t107.5 14q47 0 100 -11v18q0 120 -118 120q-79 0 -159 -44l-27 76q98 47 197 47q105 0 151.5 -53.5t46.5 -154.5v-304zM377 124v103q-46 10 -90 10
q-144 0 -144 -90q0 -43 27.5 -63t71.5 -20q64 0 135 60zM172 639q0 38 27.5 65.5t65.5 27.5t65.5 -27.5t27.5 -65.5t-27.5 -65.5t-65.5 -27.5t-65.5 27.5t-27.5 65.5zM221 639q0 -18 13 -31t31 -13t31 13t13 31t-13 31t-31 13t-31 -13t-13 -31z" />
    <glyph glyph-name="AEacute" unicode="&#x1fc;" horiz-adv-x="986" 
d="M921 0h-420v149h-286l-105 -149h-120l512 700h419v-86h-324v-210h324v-86h-324v-232h324v-86zM275 235h226v321zM729 866l-175 -126l-42 54l165 138z" />
    <glyph glyph-name="aeacute" unicode="&#x1fd;" horiz-adv-x="891" 
d="M755 300q-3 55 -40.5 94.5t-92.5 39.5q-58 0 -97.5 -37.5t-53.5 -96.5h284zM392 140q-16 44 -19 88q-45 9 -86 9q-144 0 -144 -90q0 -43 27.5 -63t71.5 -20q81 0 150 76zM774 147l66 -42q-73 -117 -219 -117q-125 0 -193 86q-73 -86 -197 -86q-75 0 -126 38t-51 114
q0 60 34 99t81.5 53t107.5 14q47 0 100 -11v18q0 120 -118 120q-79 0 -159 -44l-27 76q98 47 197 47q128 0 171 -84q71 84 180 84q99 0 163.5 -66t64.5 -167q0 -26 -4 -52h-381q5 -68 48.5 -114.5t112.5 -46.5q106 0 149 81zM586 726l-134 -160l-55 42l123 169z" />
    <glyph glyph-name="Oslashacute" unicode="&#x1fe;" horiz-adv-x="840" 
d="M680 672l-29 -43q60 -50 94.5 -123t34.5 -156q0 -151 -104 -256.5t-256 -105.5q-95 0 -173 43l-33 -49l-67 42l35 52q-58 50 -90 121t-32 153q0 151 104 256.5t256 105.5q87 0 165 -40l28 42zM678 350q0 121 -79 202l-302 -447q56 -31 123 -31q111 0 184.5 79.5
t73.5 196.5zM162 350q0 -118 73 -196l300 445q-54 27 -115 27q-111 0 -184.5 -79.5t-73.5 -196.5zM574 866l-175 -126l-42 54l165 138z" />
    <glyph glyph-name="oslashacute" unicode="&#x1ff;" horiz-adv-x="594" 
d="M492 486l-26 -38q86 -78 86 -198q0 -110 -73 -186t-182 -76q-65 0 -122 30l-26 -39l-54 35l28 42q-81 76 -81 194q0 110 73 186t182 76q63 0 116 -28l25 37zM459 250q0 73 -44 123l-191 -283q31 -18 73 -18q70 0 116 52t46 126zM135 250q0 -69 39 -119l190 281
q-32 16 -67 16q-70 0 -116 -52t-46 -126zM438 726l-134 -160l-55 42l123 169z" />
    <glyph glyph-name="Scommaaccent" unicode="&#x218;" horiz-adv-x="609" 
d="M458 570q-26 24 -66.5 40t-80.5 16q-57 0 -91 -25.5t-34 -71.5q0 -18 9 -33t19 -24.5t34 -20.5t38 -16.5t46 -16.5q47 -17 76.5 -30.5t65 -38.5t53 -60.5t17.5 -82.5q0 -56 -23 -100t-60 -68.5t-79 -37t-84 -12.5q-147 0 -253 105l68 64q48 -47 90 -65t96 -18
q60 0 101.5 30.5t41.5 90.5q0 28 -11.5 48.5t-37.5 36.5t-47 24.5t-60 22.5q-42 15 -72 29t-61 36.5t-47.5 54.5t-16.5 72q0 94 60 143.5t151 49.5q122 0 217 -72zM262 -231h-75l36 175h85z" />
    <glyph glyph-name="scommaaccent" unicode="&#x219;" horiz-adv-x="451" 
d="M382 457l-54 -58q-43 37 -99 37q-34 0 -54.5 -18t-20.5 -48q0 -18 16 -33t32 -22.5t48 -20.5q30 -12 51 -22.5t45.5 -28t37 -42.5t12.5 -56q0 -79 -52 -118t-129 -39q-112 0 -172 78l64 51q50 -53 109 -53q39 0 64.5 20t25.5 57q0 18 -15.5 33.5t-31.5 23t-49 20.5
q-35 14 -52 22t-42.5 25.5t-37 41.5t-11.5 56q0 72 47 110.5t114 38.5q93 0 154 -55zM197 -231h-75l36 175h85z" />
    <glyph glyph-name="uni021A" unicode="&#x21a;" horiz-adv-x="488" 
d="M468 614h-176v-614h-96v614h-176v86h448v-86zM236 -231h-75l36 175h85z" />
    <glyph glyph-name="uni021B" unicode="&#x21b;" horiz-adv-x="346" 
d="M320 420h-140v-226q0 -24 1 -39q2 -42 18 -63t52 -21q28 0 56 14l25 -73q-42 -22 -93 -22q-99 0 -134 78q-16 37 -16 104v248h-67v80h67v120h91v-120h140v-80zM178 -231h-75l36 175h85z" />
    <glyph glyph-name="dotlessj" unicode="&#x237;" horiz-adv-x="267" 
d="M183 500v-544q0 -59 -14 -95q-32 -83 -133 -83q-56 0 -96 22l26 74q26 -14 56 -14q44 0 57 28t13 86v526h91z" />
    <glyph glyph-name="apostrophe" unicode="&#x2bc;" horiz-adv-x="360" 
d="M154 712h99l-58 -212h-80z" />
    <glyph glyph-name="circumflex" unicode="&#x2c6;" horiz-adv-x="360" 
d="M326 602l-53 -36l-93 129l-93 -129l-55 36l104 157h88z" />
    <glyph glyph-name="caron" unicode="&#x2c7;" horiz-adv-x="360" 
d="M32 726l54 36l93 -129l93 129l54 -36l-104 -157h-88z" />
    <glyph glyph-name="uni02C9" unicode="&#x2c9;" horiz-adv-x="360" 
d="M328 608h-296v70h296v-70z" />
    <glyph glyph-name="breve" unicode="&#x2d8;" horiz-adv-x="360" 
d="M259 725h64v-14q0 -60 -41.5 -101.5t-101.5 -41.5t-101.5 41.5t-41.5 101.5v14h66v-14q0 -33 22 -56t55 -23q32 0 55.5 23t23.5 56v14z" />
    <glyph glyph-name="dotaccent" unicode="&#x2d9;" horiz-adv-x="360" 
d="M226 598h-91v102h91v-102z" />
    <glyph glyph-name="ring" unicode="&#x2da;" horiz-adv-x="360" 
d="M87 673q0 38 27.5 65.5t65.5 27.5t65.5 -27.5t27.5 -65.5t-27.5 -65.5t-65.5 -27.5t-65.5 27.5t-27.5 65.5zM136 673q0 -18 13 -31t31 -13t31 13t13 31t-13 31t-31 13t-31 -13t-13 -31z" />
    <glyph glyph-name="ogonek" unicode="&#x2db;" horiz-adv-x="360" 
d="M161 12l69 -7l4 -5q-51 -16 -77 -46t-26 -64q0 -44 42 -44q22 0 44 14l32 -51q-34 -31 -89 -31q-45 0 -78 26.5t-33 72.5q0 92 112 135z" />
    <glyph glyph-name="tilde" unicode="&#x2dc;" horiz-adv-x="360" 
d="M351 700q2 -12 2 -23q0 -43 -27.5 -69t-70.5 -26q-39 0 -84 32t-64 32q-31 0 -33 -30q0 -7 1 -10l-65 -7q-2 12 -2 23q0 43 27.5 69t70.5 26q38 0 83.5 -32t64.5 -32q31 0 33 30q0 7 -1 10z" />
    <glyph glyph-name="hungarumlaut" unicode="&#x2dd;" horiz-adv-x="360" 
d="M388 726l-135 -161l-56 43l125 169zM235 741l-140 -166l-55 40l128 178z" />
    <glyph glyph-name="uni0394" unicode="&#x394;" 
d="M540 0h-531l221 570h92zM407 81l-134 368h-2l-135 -368h271z" />
    <glyph glyph-name="uni03A9" unicode="&#x3a9;" horiz-adv-x="794" 
d="M20 86h184q-77 54 -115.5 129t-38.5 156q0 66 23.5 127t66 109t109.5 76.5t148 28.5t148 -28.5t109.5 -76.5t66 -109t23.5 -127q0 -81 -38.5 -156t-115.5 -129h184v-86h-318v94q88 30 136.5 107.5t48.5 167.5q0 108 -62 182.5t-182 74.5t-182 -74.5t-62 -182.5
q0 -90 48.5 -167.5t136.5 -107.5v-94h-318v86z" />
    <glyph glyph-name="uni03BC" unicode="&#x3bc;" 
d="M406 0v82q-59 -94 -163 -94q-58 0 -99 22v-260h-91v750h91v-250q0 -31 1 -50.5t7.5 -46.5t17.5 -42.5t33.5 -27t53.5 -11.5q42 0 81.5 26.5t67.5 69.5v332h91v-500h-91z" />
    <glyph glyph-name="pi" unicode="&#x3c0;" 
d="M537 420h-94v-244q0 -24 1 -34q2 -36 13 -54.5t35 -23.5l-38 -80q-91 23 -100 144q-2 24 -2 39v253h-171v-359q0 -28 -5 -61h-93q7 26 7 70v350h-60v80h507v-80z" />
    <glyph glyph-name="Wgrave" unicode="&#x1e80;" horiz-adv-x="886" 
d="M490 700l140 -528h2l147 528h102l-200 -700h-96l-140 533h-2l-152 -533h-94l-192 700h106l140 -528h2l147 528h90zM470 740l-175 126l52 66l165 -138z" />
    <glyph glyph-name="wgrave" unicode="&#x1e81;" horiz-adv-x="733" 
d="M419 500l101 -385h3l102 385h92l-144 -500h-98l-107 389h-2l-110 -389h-102l-138 500h98l94 -385h2l111 385h98zM364 566l-134 160l66 51l123 -169z" />
    <glyph glyph-name="Wacute" unicode="&#x1e82;" horiz-adv-x="886" 
d="M490 700l140 -528h2l147 528h102l-200 -700h-96l-140 533h-2l-152 -533h-94l-192 700h106l140 -528h2l147 528h90zM599 866l-175 -126l-42 54l165 138z" />
    <glyph glyph-name="wacute" unicode="&#x1e83;" horiz-adv-x="733" 
d="M419 500l101 -385h3l102 385h92l-144 -500h-98l-107 389h-2l-110 -389h-102l-138 500h98l94 -385h2l111 385h98zM507 726l-134 -160l-55 42l123 169z" />
    <glyph glyph-name="Wdieresis" unicode="&#x1e84;" horiz-adv-x="886" 
d="M490 700l140 -528h2l147 528h102l-200 -700h-96l-140 533h-2l-152 -533h-94l-192 700h106l140 -528h2l147 528h90zM361 764h-102v111h102v-111zM631 764h-102v111h102v-111z" />
    <glyph glyph-name="wdieresis" unicode="&#x1e85;" horiz-adv-x="733" 
d="M419 500l101 -385h3l102 385h92l-144 -500h-98l-107 389h-2l-110 -389h-102l-138 500h98l94 -385h2l111 385h98zM315 598h-93v102h93v-102zM518 598h-93v102h93v-102z" />
    <glyph glyph-name="Ygrave" unicode="&#x1ef2;" horiz-adv-x="555" 
d="M324 0h-96v304l-223 396h119l156 -294h3l155 294h112l-226 -401v-299zM330 740l-175 126l52 66l165 -138z" />
    <glyph glyph-name="ygrave" unicode="&#x1ef3;" horiz-adv-x="477" 
d="M6 500h101l130 -379h2l133 379h99l-281 -725l-80 31l79 209zM261 566l-134 160l66 51l123 -169z" />
    <glyph glyph-name="thinspace" unicode="&#x2009;" horiz-adv-x="125" 
 />
    <glyph glyph-name="endash" unicode="&#x2013;" horiz-adv-x="600" 
d="M550 267h-500v83h500v-83z" />
    <glyph glyph-name="emdash" unicode="&#x2014;" horiz-adv-x="900" 
d="M850 267h-800v83h800v-83z" />
    <glyph glyph-name="quoteleft" unicode="&#x2018;" horiz-adv-x="273" 
d="M213 700l-51 -250h-102l66 250h87z" />
    <glyph glyph-name="quoteright" unicode="&#x2019;" horiz-adv-x="273" 
d="M213 700l-66 -250h-87l51 250h102z" />
    <glyph glyph-name="quotesinglbase" unicode="&#x201a;" horiz-adv-x="273" 
d="M213 116l-66 -250h-87l51 250h102z" />
    <glyph glyph-name="quotedblleft" unicode="&#x201c;" horiz-adv-x="523" 
d="M443 700l-51 -250h-102l66 250h87zM233 700l-51 -250h-102l66 250h87z" />
    <glyph glyph-name="quotedblright" unicode="&#x201d;" horiz-adv-x="523" 
d="M233 700l-66 -250h-87l51 250h102zM443 700l-66 -250h-87l51 250h102z" />
    <glyph glyph-name="quotedblbase" unicode="&#x201e;" horiz-adv-x="523" 
d="M233 116l-66 -250h-87l51 250h102zM443 116l-66 -250h-87l51 250h102z" />
    <glyph glyph-name="dagger" unicode="&#x2020;" horiz-adv-x="412" 
d="M70 529h36l70 -3l-4 126v48h68v-48l-4 -126l70 3h36v-66h-36l-70 3l4 -167v-161h-68v161l4 167l-70 -3h-36v66z" />
    <glyph glyph-name="daggerdbl" unicode="&#x2021;" horiz-adv-x="412" 
d="M70 422h36l69 -3l-1 23v51l1 44l-69 -2h-36v66h36l69 -3l-3 66v36h68v-36l-3 -66l69 3h36v-66h-36l-69 2l1 -44v-51l-1 -23l69 3h36v-66h-36l-69 2l3 -77v-143h-68v143l3 77l-69 -2h-36v66z" />
    <glyph glyph-name="bullet" unicode="&#x2022;" horiz-adv-x="318" 
d="M35 289q0 52 36 88t88 36t88 -36t36 -88t-36 -88t-88 -36t-88 36t-36 88z" />
    <glyph glyph-name="ellipsis" unicode="&#x2026;" horiz-adv-x="750" 
d="M177 0h-105v116h105v-116zM677 0h-105v116h105v-116zM427 0h-105v116h105v-116z" />
    <glyph glyph-name="perthousand" unicode="&#x2030;" horiz-adv-x="1236" 
d="M1019 313q67 0 113 -46.5t46 -113.5q0 -66 -46 -112.5t-113 -46.5t-113.5 46.5t-46.5 112.5q0 67 46.5 113.5t113.5 46.5zM1020 242q-37 0 -61.5 -25t-24.5 -63t24.5 -63.5t61.5 -25.5q35 0 59 25.5t24 63.5q0 37 -24 62.5t-59 25.5zM218 706q67 0 113 -46.5t46 -113.5
q0 -66 -46 -112.5t-113 -46.5t-113.5 46.5t-46.5 112.5q0 67 46.5 113.5t113.5 46.5zM219 635q-37 0 -61.5 -25t-24.5 -63t24.5 -63.5t61.5 -25.5q35 0 59 25.5t24 63.5q0 37 -24 62.5t-59 25.5zM633 313q67 0 113 -46.5t46 -113.5q0 -66 -46 -112.5t-113 -46.5t-113.5 46.5
t-46.5 112.5q0 67 46.5 113.5t113.5 46.5zM634 242q-37 0 -61.5 -25t-24.5 -63t24.5 -63.5t61.5 -25.5q35 0 59 25.5t24 63.5q0 37 -24 62.5t-59 25.5zM648 712l55 -40l-497 -684l-55 40z" />
    <glyph glyph-name="guilsinglleft" unicode="&#x2039;" horiz-adv-x="309" 
d="M60 332l145 150l44 -88l-127 -122l127 -121l-44 -88l-145 150v119z" />
    <glyph glyph-name="guilsinglright" unicode="&#x203a;" horiz-adv-x="309" 
d="M104 481l145 -150v-119l-145 -150l-44 88l127 121l-127 122z" />
    <glyph glyph-name="fraction" unicode="&#x2044;" horiz-adv-x="132" 
d="M287 712l55 -40l-497 -684l-55 40z" />
    <glyph glyph-name="zerosuperior" unicode="&#x2070;" horiz-adv-x="338" 
d="M169 425q72 0 72 143q0 144 -72 144t-72 -144q0 -143 72 -143zM169 775q69 0 107.5 -55t38.5 -152t-38.5 -151.5t-107.5 -54.5t-107.5 54.5t-38.5 151.5t38.5 152t107.5 55z" />
    <glyph glyph-name="foursuperior" unicode="&#x2074;" horiz-adv-x="334" 
d="M20 537q28 36 172 233h73v-239h58v-61h-58v-103h-71v103h-174v67zM194 531v142q-62 -97 -98 -142h98z" />
    <glyph glyph-name="fivesuperior" unicode="&#x2075;" horiz-adv-x="315" 
d="M269 708h-144q-1 -38 -7 -96q23 10 52 10q50 0 84.5 -35.5t34.5 -86.5q0 -59 -39.5 -98.5t-98.5 -39.5q-41 0 -77 20t-54 55l60 31q19 -43 67 -43q31 0 49.5 21t18.5 50q0 28 -19 46.5t-48 18.5q-35 0 -56 -25l-49 32q9 84 13 202h213v-62z" />
    <glyph glyph-name="sixsuperior" unicode="&#x2076;" horiz-adv-x="332" 
d="M229 792l26 -59q-118 -51 -146 -137q32 29 77 29q53 0 88 -37t35 -91q0 -57 -38 -96t-96 -39q-69 0 -110.5 47.5t-41.5 114.5q0 92 58 162t148 106zM170 564q-48 0 -73 -41q0 -43 17.5 -71.5t55.5 -28.5q30 0 47.5 21t17.5 51q0 31 -18 50t-47 19z" />
    <glyph glyph-name="sevensuperior" unicode="&#x2077;" horiz-adv-x="279" 
d="M268 770v-48q-94 -197 -164 -367l-65 29q27 65 147 323h-180v63h262z" />
    <glyph glyph-name="eightsuperior" unicode="&#x2078;" horiz-adv-x="345" 
d="M301 665q0 -55 -50 -86q61 -35 61 -99q0 -50 -39 -84t-100 -34t-100.5 34t-39.5 84q0 64 61 99q-49 31 -49 86q0 47 36 78.5t92 31.5t92 -31.5t36 -78.5zM173 545q-27 0 -46.5 -17.5t-19.5 -43.5q0 -25 19.5 -42.5t46.5 -17.5t46 17.5t19 42.5q0 26 -19 43.5t-46 17.5z
M173 713q-23 0 -39.5 -15t-16.5 -37t16.5 -38t39.5 -16t39.5 16t16.5 38t-16.5 37t-39.5 15z" />
    <glyph glyph-name="ninesuperior" unicode="&#x2079;" horiz-adv-x="332" 
d="M103 345l-26 59q118 51 146 137q-32 -29 -77 -29q-53 0 -88 37t-35 91q0 57 38 96t96 39q69 0 110.5 -47.5t41.5 -114.5q0 -92 -58 -162t-148 -106zM162 573q48 0 73 41q0 43 -17.5 71.5t-55.5 28.5q-30 0 -47.5 -21t-17.5 -51q0 -31 18 -50t47 -19z" />
    <glyph glyph-name="plussuperior" unicode="&#x207a;" horiz-adv-x="334" 
d="M136 403v120h-119v61h119v120h61v-120h120v-61h-120v-120h-61z" />
    <glyph glyph-name="minussuperior" unicode="&#x207b;" horiz-adv-x="341" 
d="M31 584h279v-61h-279v61z" />
    <glyph glyph-name="equalsuperior" unicode="&#x207c;" horiz-adv-x="341" 
d="M31 638h279v-60h-279v60zM31 530h279v-61h-279v61z" />
    <glyph glyph-name="parenleftsuperior" unicode="&#x207d;" horiz-adv-x="217" 
d="M221 312l-25 -50q-167 102 -167 289q0 184 167 287l26 -50q-123 -79 -123 -237q0 -161 122 -239z" />
    <glyph glyph-name="parenrightsuperior" unicode="&#x207e;" horiz-adv-x="217" 
d="M20 262l-25 50q123 78 123 239q0 156 -123 237l26 50q167 -103 167 -287q0 -187 -168 -289z" />
    <glyph glyph-name="Euro" unicode="&#x20ac;" horiz-adv-x="650" 
d="M10 374v74h90q32 105 117.5 166.5t205.5 61.5q105 0 188 -51l-43 -74q-61 39 -145 39q-81 0 -139 -37t-85 -105h272v-74h-291q-2 -28 -2 -42q0 -27 2 -40h291v-74h-273q27 -68 84.5 -106t140.5 -38q89 0 156 46l50 -70q-91 -62 -206 -62q-121 0 -206.5 61.5t-117.5 168.5
h-89v74h75q-2 26 -2 40t2 42h-75z" />
    <glyph glyph-name="afii61352" unicode="&#x2116;" horiz-adv-x="1129" 
d="M660 0h-85l-384 522v-522h-96v700h84l385 -522v522h96v-700zM924 712q75 0 125 -51.5t50 -126.5t-50 -126.5t-125 -51.5t-125 51.5t-50 126.5t50 126.5t125 51.5zM1025 534q0 48 -28.5 80.5t-72.5 32.5t-72.5 -32.5t-28.5 -80.5t28.5 -80.5t72.5 -32.5t72.5 32.5
t28.5 80.5z" />
    <glyph glyph-name="trademark" unicode="&#x2122;" horiz-adv-x="979" 
d="M350 634h-98v-340h-74v340h-98v66h270v-66zM825 616l-131 -322h-70l-129 321v-321h-74v406h117l121 -312l123 312h117v-406h-74v322z" />
    <glyph glyph-name="Omega" unicode="&#x2126;" horiz-adv-x="794" 
d="M20 86h184q-77 54 -115.5 129t-38.5 156q0 66 23.5 127t66 109t109.5 76.5t148 28.5t148 -28.5t109.5 -76.5t66 -109t23.5 -127q0 -81 -38.5 -156t-115.5 -129h184v-86h-318v94q88 30 136.5 107.5t48.5 167.5q0 108 -62 182.5t-182 74.5t-182 -74.5t-62 -182.5
q0 -90 48.5 -167.5t136.5 -107.5v-94h-318v86z" />
    <glyph glyph-name="onethird" unicode="&#x2153;" horiz-adv-x="770" 
d="M577 712l55 -40l-497 -684l-55 40zM224 338h-69v283q-26 -12 -53 -23v62q2 1 32 16.5t45 23.5h45v-362zM517 152v60q30 0 45 4q41 11 41 47q0 19 -14 31t-37 12q-39 0 -48 -38l-59 26q12 33 41.5 52t66.5 19q50 0 85 -27t35 -70q0 -23 -12.5 -44t-32.5 -32q28 -10 45 -34
t17 -55q0 -50 -37 -80t-91 -30q-39 0 -72 18t-50 53l58 27q18 -40 64 -40q24 0 40.5 13.5t16.5 37.5q0 25 -19.5 39t-50.5 14q-20 0 -32 -3z" />
    <glyph glyph-name="twothirds" unicode="&#x2154;" horiz-adv-x="858" 
d="M665 712l55 -40l-497 -684l-55 40zM88 394q72 74 125 147q28 38 28 67q0 18 -13 29t-33 11t-33 -14t-13 -38l-69 12q3 44 37.5 71.5t80.5 27.5t80.5 -27.5t34.5 -71.5q0 -43 -39 -99q-32 -46 -93 -110h147v-58h-240v53zM605 152v60q30 0 45 4q41 11 41 47q0 19 -14 31
t-37 12q-39 0 -48 -38l-59 26q12 33 41.5 52t66.5 19q50 0 85 -27t35 -70q0 -23 -12.5 -44t-32.5 -32q28 -10 45 -34t17 -55q0 -50 -37 -80t-91 -30q-39 0 -72 18t-50 53l58 27q18 -40 64 -40q24 0 40.5 13.5t16.5 37.5q0 25 -19.5 39t-50.5 14q-20 0 -32 -3z" />
    <glyph glyph-name="oneeighth" unicode="&#x215b;" horiz-adv-x="784" 
d="M577 712l55 -40l-497 -684l-55 40zM224 338h-69v283q-26 -12 -53 -23v62q2 1 32 16.5t45 23.5h45v-362zM650 188q54 -29 54 -89q0 -45 -36 -75.5t-91 -30.5q-56 0 -91.5 30.5t-35.5 75.5q0 58 54 89q-45 28 -45 77q0 42 33 71t85 29t85 -29t33 -71q0 -49 -45 -77z
M528 261q0 -20 14 -33.5t35 -13.5q20 0 34.5 14t14.5 33q0 20 -14.5 33.5t-34.5 13.5q-21 0 -35 -13.5t-14 -33.5zM520 103q0 -23 16 -38t41 -15t41 15t16 38t-16 38.5t-41 15.5t-41 -15.5t-16 -38.5z" />
    <glyph glyph-name="threeeighths" unicode="&#x215c;" horiz-adv-x="851" 
d="M644 712l55 -40l-497 -684l-55 40zM157 494v60q30 0 45 4q41 11 41 47q0 19 -14 31t-37 12q-39 0 -48 -38l-59 26q12 33 41.5 52t66.5 19q50 0 85 -27t35 -70q0 -23 -12.5 -44t-32.5 -32q28 -10 45 -34t17 -55q0 -50 -37 -80t-91 -30q-39 0 -72 18t-50 53l58 27
q18 -40 64 -40q24 0 40.5 13.5t16.5 37.5q0 25 -19.5 39t-50.5 14q-20 0 -32 -3zM717 188q54 -29 54 -89q0 -45 -36 -75.5t-91 -30.5q-56 0 -91.5 30.5t-35.5 75.5q0 58 54 89q-45 28 -45 77q0 42 33 71t85 29t85 -29t33 -71q0 -49 -45 -77zM595 261q0 -20 14 -33.5
t35 -13.5q20 0 34.5 14t14.5 33q0 20 -14.5 33.5t-34.5 13.5q-21 0 -35 -13.5t-14 -33.5zM587 103q0 -23 16 -38t41 -15t41 15t16 38t-16 38.5t-41 15.5t-41 -15.5t-16 -38.5z" />
    <glyph glyph-name="fiveeighths" unicode="&#x215d;" horiz-adv-x="838" 
d="M631 712l55 -40l-497 -684l-55 40zM310 642h-130q0 -4 -6 -83q18 9 46 9q45 0 76 -32.5t31 -77.5q0 -53 -36 -88t-90 -35q-85 0 -121 68l58 29q17 -39 60 -39q27 0 42.5 17.5t15.5 43.5q0 25 -16.5 41t-41.5 16q-31 0 -50 -23l-45 31q8 83 12 181h195v-58zM704 188
q54 -29 54 -89q0 -45 -36 -75.5t-91 -30.5q-56 0 -91.5 30.5t-35.5 75.5q0 58 54 89q-45 28 -45 77q0 42 33 71t85 29t85 -29t33 -71q0 -49 -45 -77zM582 261q0 -20 14 -33.5t35 -13.5q20 0 34.5 14t14.5 33q0 20 -14.5 33.5t-34.5 13.5q-21 0 -35 -13.5t-14 -33.5zM574 103
q0 -23 16 -38t41 -15t41 15t16 38t-16 38.5t-41 15.5t-41 -15.5t-16 -38.5z" />
    <glyph glyph-name="seveneighths" unicode="&#x215e;" horiz-adv-x="784" 
d="M577 712l55 -40l-497 -684l-55 40zM332 656q-82 -169 -149 -331l-63 29q49 113 136 287h-165v59h241v-44zM650 188q54 -29 54 -89q0 -45 -36 -75.5t-91 -30.5q-56 0 -91.5 30.5t-35.5 75.5q0 58 54 89q-45 28 -45 77q0 42 33 71t85 29t85 -29t33 -71q0 -49 -45 -77z
M528 261q0 -20 14 -33.5t35 -13.5q20 0 34.5 14t14.5 33q0 20 -14.5 33.5t-34.5 13.5q-21 0 -35 -13.5t-14 -33.5zM520 103q0 -23 16 -38t41 -15t41 15t16 38t-16 38.5t-41 15.5t-41 -15.5t-16 -38.5z" />
    <glyph glyph-name="uni2192" unicode="&#x2192;" horiz-adv-x="947" 
d="M584 -28l-51 52l207 204h-670v72h670l-207 204l51 51l293 -291z" />
    <glyph glyph-name="uni2194" unicode="&#x2194;" horiz-adv-x="1117" 
d="M414 504l-208 -204h704l-207 204l51 51l293 -291l-293 -292l-51 52l207 204h-704l208 -204l-51 -52l-293 292l293 291z" />
    <glyph glyph-name="uni21D2" unicode="&#x21d2;" horiz-adv-x="947" 
d="M777 264l-37 36h-670v72h597l-134 132l51 51l293 -291l-293 -292l-51 52l134 132h-597v72h670z" />
    <glyph glyph-name="uni21D4" unicode="&#x21d4;" horiz-adv-x="1228" 
d="M414 504l-135 -132h669l-134 132l51 51l293 -291l-293 -292l-51 52l134 132h-668l134 -132l-51 -52l-293 292l293 291zM1058 264l-37 36h-815l-36 -36l36 -36h815z" />
    <glyph glyph-name="uni21FD" unicode="&#x21fd;" horiz-adv-x="948" 
d="M351 542v-242h527v-72h-527v-243l-281 279zM168 264l112 -111v220z" />
    <glyph glyph-name="uni21FE" unicode="&#x21fe;" horiz-adv-x="947" 
d="M597 -15v243h-527v72h527v242l280 -278zM667 153l112 111l-112 109v-220z" />
    <glyph glyph-name="uni21FF" unicode="&#x21ff;" horiz-adv-x="1228" 
d="M351 542v-242h527v242l280 -278l-280 -279v243h-527v-243l-281 279zM168 264l112 -111v220zM948 153l112 111l-112 109v-220z" />
    <glyph glyph-name="uni2200" unicode="&#x2200;" horiz-adv-x="653" 
d="M15 700h111l55 -149h298l54 149h105l-271 -700h-84zM330 146l117 319h-235l117 -319h1z" />
    <glyph glyph-name="partialdiff" unicode="&#x2202;" 
d="M32 699l32 78q234 -97 353 -223.5t119 -308.5q0 -110 -71 -183.5t-192 -73.5q-111 0 -182.5 78.5t-71.5 184.5q0 104 70.5 176.5t177.5 72.5q47 0 95 -16q-91 115 -330 215zM415 394q-49 23 -104 23q-90 0 -144.5 -41t-54.5 -123q0 -74 47.5 -127.5t120.5 -53.5t118 49.5
t45 118.5q0 84 -28 154z" />
    <glyph glyph-name="uni2203" unicode="&#x2203;" horiz-adv-x="580" 
d="M65 700h420v-700h-420v86h324v210h-324v86h324v232h-324v86z" />
    <glyph glyph-name="uni2204" unicode="&#x2204;" horiz-adv-x="580" 
d="M65 700h242l24 82l76 -20l-18 -62h96v-700h-297l-23 -82l-76 20l18 62h-42v86h66l60 210h-126v86h151l66 232h-217v86zM389 296h-116l-60 -210h176v210zM389 614h-25l-66 -232h91v232z" />
    <glyph glyph-name="Delta" unicode="&#x2206;" horiz-adv-x="633" 
d="M628 0h-623l271 700h84zM485 86l-171 468h-1l-172 -468h344z" />
    <glyph glyph-name="uni2208" unicode="&#x2208;" 
d="M486 0h-119q-163 0 -240 67.5t-77 182.5t77 182.5t240 67.5h119v-80h-142q-89 0 -138 -36t-61 -94h341v-80h-341q12 -59 61 -94.5t138 -35.5h142v-80z" />
    <glyph glyph-name="uni2209" unicode="&#x2209;" 
d="M367 632l76 -20l-32 -112h75v-80h-98l-37 -130h135v-80h-158l-36 -127q24 -3 52 -3h142v-80h-119q-56 0 -97 7l-40 -139l-76 20l40 140q-144 58 -144 222q0 108 68 174.5t211 74.5zM269 290l36 128q-70 -8 -110 -42.5t-50 -85.5h124zM246 210h-101q13 -68 72 -101z" />
    <glyph glyph-name="product" unicode="&#x220f;" 
d="M543 484h-90v-484h-96v484h-164v-484h-96v484h-90v86h536v-86z" />
    <glyph glyph-name="summation" unicode="&#x2211;" 
d="M396 365l-218 -279h354v-86h-512v51l255 311l-244 286v52h476v-86h-323z" />
    <glyph glyph-name="minus" unicode="&#x2212;" 
d="M54 350h441v-78h-441v78z" />
    <glyph glyph-name="uni2215" unicode="&#x2215;" horiz-adv-x="363" 
d="M363 735l-292 -788l-71 27l292 788z" />
    <glyph glyph-name="uni2219" unicode="&#x2219;" 
d="M327 253h-105v116h105v-116z" />
    <glyph glyph-name="radical" unicode="&#x221a;" 
d="M550 750l-242 -750h-95l-127 419h-86v81h164l99 -381h2l187 631h98z" />
    <glyph glyph-name="infinity" unicode="&#x221e;" horiz-adv-x="778" 
d="M738 246q0 -68 -48.5 -116t-118.5 -48q-46 0 -86.5 25t-95.5 83q-56 -58 -96.5 -83t-85.5 -25q-70 0 -118.5 48.5t-48.5 117.5q0 68 48.5 116t118.5 48q45 0 85.5 -25t96.5 -83q55 58 95.5 83t86.5 25q70 0 118.5 -48.5t48.5 -117.5zM571 159q34 0 57 26t23 62
q0 35 -23 61.5t-57 26.5q-47 0 -130 -88q81 -88 130 -88zM207 335q-34 0 -57 -26t-23 -62q0 -35 23 -61.5t57 -26.5q47 0 130 88q-81 88 -130 88z" />
    <glyph glyph-name="uni2229" unicode="&#x2229;" 
d="M50 0v195q0 166 56.5 241.5t168.5 75.5t168.5 -75.5t56.5 -241.5v-195h-80v229q0 203 -145 203t-145 -203v-229h-80z" />
    <glyph glyph-name="uni222A" unicode="&#x222a;" 
d="M500 500v-195q0 -166 -56.5 -241.5t-168.5 -75.5t-168.5 75.5t-56.5 241.5v195h80v-229q0 -203 145 -203t145 203v229h80z" />
    <glyph glyph-name="integral" unicode="&#x222b;" 
d="M493 740l-26 -76q-30 14 -62 14q-44 0 -62 -18q-17 -18 -20 -95l-26 -602q-4 -100 -43 -143q-37 -41 -109 -41q-36 0 -89 22l26 76q30 -14 52 -14q34 0 52 18q17 18 20 95l26 602q4 100 43 143q37 41 119 41q46 0 99 -22z" />
    <glyph glyph-name="uni2234" unicode="&#x2234;" 
d="M171 0h-105v116h105v-116zM485 0h-105v116h105v-116zM328 284h-105v116h105v-116z" />
    <glyph glyph-name="approxequal" unicode="&#x2248;" 
d="M438 443l57 -38q-38 -78 -132 -78q-37 0 -93 23t-85 23q-52 0 -74 -37l-57 38q38 78 132 78q37 0 93 -23t85 -23q52 0 74 37zM438 286l57 -38q-38 -78 -132 -78q-37 0 -93 23t-85 23q-52 0 -74 -37l-57 38q38 78 132 78q37 0 93 -23t85 -23q52 0 74 37z" />
    <glyph glyph-name="notequal" unicode="&#x2260;" 
d="M54 272h143l52 78h-195v78h248l105 156l62 -44l-76 -112h102v-78h-155l-52 -78h207v-78h-260l-105 -156l-61 44l75 112h-90v78z" />
    <glyph glyph-name="lessequal" unicode="&#x2264;" 
d="M24 342v78l501 200v-78l-404 -161l404 -161v-78zM24 78h501v-78h-501v78z" />
    <glyph glyph-name="greaterequal" unicode="&#x2265;" 
d="M525 420v-78l-501 -200v78l404 161l-404 161v78zM24 78h501v-78h-501v78z" />
    <glyph glyph-name="uni2282" unicode="&#x2282;" 
d="M486 0h-119q-163 0 -240 67.5t-77 182.5t77 182.5t240 67.5h119v-80h-142q-104 0 -153.5 -48t-49.5 -122t49.5 -122t153.5 -48h142v-80z" />
    <glyph glyph-name="uni2283" unicode="&#x2283;" 
d="M183 0h-119v80h142q104 0 153.5 48t49.5 122t-49.5 122t-153.5 48h-142v80h119q163 0 240 -67.5t77 -182.5t-77 -182.5t-240 -67.5z" />
    <glyph glyph-name="uni2284" unicode="&#x2284;" 
d="M367 632l76 -20l-32 -112h75v-80h-98l-96 -337q24 -3 52 -3h142v-80h-119q-56 0 -97 7l-40 -139l-76 20l40 140q-144 58 -144 222q0 108 68 174.5t211 74.5zM217 109l88 309q-83 -9 -123.5 -55.5t-40.5 -112.5q0 -97 76 -141z" />
    <glyph glyph-name="uni2285" unicode="&#x2285;" 
d="M320 632l76 -20l-41 -140q145 -58 145 -222q0 -109 -68 -175t-211 -74l-38 -133l-76 20l32 112h-75v80h98l96 336q-21 4 -52 4h-142v80h119q51 0 97 -8zM332 391l-88 -309q84 8 124.5 54.5t40.5 113.5q0 97 -77 141z" />
    <glyph glyph-name="uni2286" unicode="&#x2286;" 
d="M486 160h-119q-163 0 -240 67.5t-77 182.5t77 182.5t240 67.5h119v-80h-142q-104 0 -153.5 -48t-49.5 -122t49.5 -122t153.5 -48h142v-80zM62 0v80h424v-80h-424z" />
    <glyph glyph-name="uni2287" unicode="&#x2287;" 
d="M183 160h-119v80h142q104 0 153.5 48t49.5 122t-49.5 122t-153.5 48h-142v80h119q163 0 240 -67.5t77 -182.5t-77 -182.5t-240 -67.5zM64 0v80h424v-80h-424z" />
    <glyph glyph-name="uni22C4" unicode="&#x22c4;" 
d="M381 250l-106 170l-106 -170l106 -170zM275 555l191 -305l-191 -305l-192 305z" />
    <glyph glyph-name="triangle" unicode="&#x25b3;" horiz-adv-x="398" 
d="M368 286l-308 -175v348z" />
    <glyph glyph-name="lozenge" unicode="&#x25ca;" 
d="M37 350l196 350h85l196 -350l-196 -350h-85zM429 350l-154 274l-153 -274l153 -274z" />
    <glyph glyph-name="circle" unicode="&#x25cb;" horiz-adv-x="366" 
d="M35 289q0 61 43.5 104.5t104.5 43.5t104.5 -43.5t43.5 -104.5t-43.5 -104.5t-104.5 -43.5t-104.5 43.5t-43.5 104.5z" />
    <glyph glyph-name="uni25FB" unicode="&#x25fb;" 
d="M455 34h-360v360h360v-360zM167 322v-216h216v216h-216z" />
    <glyph glyph-name="commainferior" unicode="&#xf6e1;" horiz-adv-x="166" 
d="M123 -98l-42 -158h-68l32 158h78z" />
    <glyph glyph-name="commasuperior" unicode="&#xf6e2;" horiz-adv-x="166" 
d="M123 447l-42 -158h-68l32 158h78z" />
    <glyph glyph-name="hypheninferior" unicode="&#xf6e5;" horiz-adv-x="276" 
d="M216 -38h-156v62h156v-62z" />
    <glyph glyph-name="hyphensuperior" unicode="&#xf6e6;" horiz-adv-x="276" 
d="M216 507h-156v62h156v-62z" />
    <glyph glyph-name="periodinferior" unicode="&#xf6e7;" horiz-adv-x="160" 
d="M119 -178h-78v80h78v-80z" />
    <glyph glyph-name="periodsuperior" unicode="&#xf6e8;" horiz-adv-x="160" 
d="M119 367h-78v80h78v-80z" />
    <glyph glyph-name="s_t" unicode="&#xfb06;" horiz-adv-x="797" 
d="M382 457l-54 -58q-43 37 -99 37q-34 0 -54.5 -18t-20.5 -48q0 -18 16 -33t32 -22.5t48 -20.5q30 -12 51 -22.5t45.5 -28t37 -42.5t12.5 -56q0 -79 -52 -118t-129 -39q-112 0 -172 78l64 51q50 -53 109 -53q39 0 64.5 20t25.5 57q0 18 -15.5 33.5t-31.5 23t-49 20.5
q-35 14 -52 22t-42.5 25.5t-37 41.5t-11.5 56q0 72 47 110.5t114 38.5q93 0 154 -55zM771 420h-140v-226q0 -24 1 -39q2 -42 18 -63t52 -21q28 0 56 14l25 -73q-42 -22 -93 -22q-99 0 -134 78q-16 37 -16 104v248h-67v80h67v120h91v-120h140v-80z" />
    <glyph glyph-name="M.salt" horiz-adv-x="835" 
d="M448 159h-62l-197 401v-560h-94v700h126l196 -405h1l197 405h125v-700h-94v560z" />
    <glyph glyph-name="trademark.salt" horiz-adv-x="881" 
d="M421 700h89l101 -214l103 214h87v-406h-74v271l-94 -189h-44l-94 189v-271h-74v406zM350 634h-98v-340h-74v340h-98v66h270v-66z" />
    <glyph glyph-name="hyphen.case" horiz-adv-x="460" 
d="M360 293h-260v82h260v-82z" />
    <glyph glyph-name="germandbls.cap" horiz-adv-x="1218" 
d="M1067 570q-26 24 -66.5 40t-80.5 16q-57 0 -91 -25.5t-34 -71.5q0 -18 9 -33t19 -24.5t34 -20.5t38 -16.5t46 -16.5q47 -17 76.5 -30.5t65 -38.5t53 -60.5t17.5 -82.5q0 -56 -23 -100t-60 -68.5t-79 -37t-84 -12.5q-147 0 -253 105l68 64q48 -47 90 -65t96 -18
q60 0 101.5 30.5t41.5 90.5q0 28 -11.5 48.5t-37.5 36.5t-47 24.5t-60 22.5q-42 15 -72 29t-61 36.5t-47.5 54.5t-16.5 72q0 94 60 143.5t151 49.5q123 0 217 -72zM458 570q-26 24 -66.5 40t-80.5 16q-57 0 -91 -25.5t-34 -71.5q0 -18 9 -33t19 -24.5t34 -20.5t38 -16.5
t46 -16.5q47 -17 76.5 -30.5t65 -38.5t53 -60.5t17.5 -82.5q0 -56 -23 -100t-60 -68.5t-79 -37t-84 -12.5q-147 0 -253 105l68 64q48 -47 90 -65t96 -18q60 0 101.5 30.5t41.5 90.5q0 28 -11.5 48.5t-37.5 36.5t-47 24.5t-60 22.5q-42 15 -72 29t-61 36.5t-47.5 54.5
t-16.5 72q0 94 60 143.5t151 49.5q122 0 217 -72z" />
    <glyph glyph-name="idotaccent" horiz-adv-x="259" 
d="M175 0h-91v500h91v-500zM175 598h-91v102h91v-102z" />
    <glyph glyph-name="s_p" horiz-adv-x="1077" 
d="M382 457l-54 -58q-43 37 -99 37q-34 0 -54.5 -18t-20.5 -48q0 -18 16 -33t32 -22.5t48 -20.5q30 -12 51 -22.5t45.5 -28t37 -42.5t12.5 -56q0 -79 -52 -118t-129 -39q-112 0 -172 78l64 51q50 -53 109 -53q39 0 64.5 20t25.5 57q0 18 -15.5 33.5t-31.5 23t-49 20.5
q-35 14 -52 22t-42.5 25.5t-37 41.5t-11.5 56q0 72 47 110.5t114 38.5q93 0 154 -55zM535 500h91v-67q26 38 69 58.5t90 20.5q107 0 178.5 -76t71.5 -187q0 -104 -71 -182.5t-181 -78.5q-93 0 -157 66v-304h-91v750zM626 333v-185q25 -36 65 -56t80 -20q81 0 126 54t45 125
q0 73 -47 125t-122 52q-44 0 -86.5 -25.5t-60.5 -69.5z" />
    <glyph glyph-name="c_t" horiz-adv-x="836" 
d="M406 107l45 -70q-60 -49 -153 -49q-109 0 -182.5 73t-73.5 189q0 110 76 186t185 76q77 0 141 -43l-43 -75q-45 34 -102 34q-68 0 -116 -52t-48 -126q0 -79 48.5 -128.5t116.5 -49.5q59 0 106 35zM810 420h-140v-226q0 -24 1 -39q2 -42 18 -63t52 -21q28 0 56 14l25 -73
q-42 -22 -93 -22q-99 0 -134 78q-16 37 -16 104v248h-67v80h67v120h91v-120h140v-80z" />
    <glyph glyph-name="c_h" horiz-adv-x="1081" 
d="M406 107l45 -70q-60 -49 -153 -49q-109 0 -182.5 73t-73.5 189q0 110 76 186t185 76q77 0 141 -43l-43 -75q-45 34 -102 34q-68 0 -116 -52t-48 -126q0 -79 48.5 -128.5t116.5 -49.5q59 0 106 35zM650 750v-332q59 94 163 94q98 0 145 -63q45 -61 45 -189v-260h-91v250
q0 99 -26 138q-27 40 -87 40q-42 0 -81.5 -26.5t-67.5 -69.5v-332h-91v750h91z" />
    <glyph glyph-name="c_k" horiz-adv-x="989" 
d="M406 107l45 -70q-60 -49 -153 -49q-109 0 -182.5 73t-73.5 189q0 110 76 186t185 76q77 0 141 -43l-43 -75q-45 34 -102 34q-68 0 -116 -52t-48 -126q0 -79 48.5 -128.5t116.5 -49.5q59 0 106 35zM983 0h-111l-143 224l-79 -92v-132h-91v750h91v-500l2 -1l202 251h112
l-175 -204z" />
    <glyph glyph-name="T_h" horiz-adv-x="1094" 
d="M468 614h-176v-614h-96v614h-176v86h448v-86zM663 750v-332q59 94 163 94q98 0 145 -63q45 -61 45 -189v-260h-91v250q0 99 -26 138q-27 40 -87 40q-42 0 -81.5 -26.5t-67.5 -69.5v-332h-91v750h91z" />
    <glyph glyph-name="a.sup" horiz-adv-x="340" 
d="M167 557q26 0 58 -7v8q0 67 -66 67q-47 0 -95 -27l-20 54q62 31 128 31q124 0 124 -129v-187h-63l-4 29q-30 -36 -87 -36q-46 0 -78.5 25t-32.5 71q0 53 39.5 77t96.5 24zM225 504q-29 6 -47 6q-31 0 -54 -12t-23 -39q0 -23 15 -34.5t38 -11.5q35 0 71 31v60z" />
    <glyph glyph-name="b.sup" horiz-adv-x="385" 
d="M212 360q-63 0 -96 43l-3 -36h-65v450h71v-178q32 44 94 44q63 0 105.5 -47t42.5 -115q0 -66 -42.5 -113.5t-106.5 -47.5zM199 620q-55 0 -80 -49v-109q29 -39 79 -39q43 0 66.5 29.5t23.5 69.5t-24.5 69t-64.5 29z" />
    <glyph glyph-name="c.sup" horiz-adv-x="294" 
d="M248 446l37 -51q-39 -35 -104 -35q-68 0 -112.5 45t-44.5 116q0 68 46 115t114 47q55 0 99 -33l-36 -53q-28 23 -61 23q-37 0 -63 -29t-26 -70q0 -43 25.5 -70.5t62.5 -27.5q35 0 63 23z" />
    <glyph glyph-name="d.sup" horiz-adv-x="385" 
d="M272 367l-4 40q-29 -47 -96 -47q-63 0 -105.5 47t-42.5 115q0 65 42.5 113t106.5 48q57 0 93 -39v173h71v-450h-65zM186 423q56 0 80 48v110q-30 39 -79 39q-43 0 -66.5 -30t-23.5 -70t24.5 -68.5t64.5 -28.5z" />
    <glyph glyph-name="e.sup" horiz-adv-x="349" 
d="M269 466l49 -32q-50 -74 -139 -74q-70 0 -112.5 45t-42.5 114q0 70 45 117t111 47q62 0 103.5 -41t41.5 -102q0 -15 -4 -37h-225q4 -37 27.5 -60.5t59.5 -23.5q58 0 86 47zM181 625q-63 0 -81 -70h152q-2 30 -22 50t-49 20z" />
    <glyph glyph-name="f.sup" horiz-adv-x="220" 
d="M237 809l-21 -57q-19 9 -41 9q-26 0 -34 -13.5t-8 -43.5v-29h80v-60h-80v-248h-71v248h-34v60h34v34q0 57 24 86t82 29q34 0 69 -15z" />
    <glyph glyph-name="g.sup" horiz-adv-x="381" 
d="M337 675v-292q0 -77 -44 -114.5t-111 -37.5q-80 0 -140 42l27 60q52 -39 111 -39q38 0 62 20t24 61v35q-33 -43 -94 -43q-63 0 -105.5 46t-42.5 112q0 65 42 111.5t107 46.5q61 0 95 -43l4 35h65zM266 478v103q-30 39 -79 39q-43 0 -66.5 -28.5t-23.5 -67.5t24.5 -66.5
t63.5 -27.5q57 0 81 48z" />
    <glyph glyph-name="h.sup" horiz-adv-x="371" 
d="M119 817v-184q36 50 95 50q113 0 113 -156v-160h-71v155q0 30 -2.5 47.5t-16.5 34t-41 16.5q-47 0 -77 -48v-205h-71v450h71z" />
    <glyph glyph-name="i.sup" horiz-adv-x="167" 
d="M119 367h-71v308h71v-308zM119 726h-71v68h71v-68z" />
    <glyph glyph-name="j.sup" horiz-adv-x="184" 
d="M-27 245l20 57q19 -7 30 -7q42 0 42 56v324h71v-332q0 -53 -22.5 -82t-77.5 -29q-32 0 -63 13zM136 726h-71v68h71v-68z" />
    <glyph glyph-name="k.sup" horiz-adv-x="326" 
d="M119 817v-280h1l111 138h84l-110 -127l118 -181h-87l-79 125l-38 -45v-80h-71v450h71z" />
    <glyph glyph-name="l.sup" horiz-adv-x="167" 
d="M119 817v-450h-71v450h71z" />
    <glyph glyph-name="m.sup" horiz-adv-x="559" 
d="M119 367h-71v308h65l3 -41q37 49 93 49q61 0 90 -54q38 54 105 54q111 0 111 -156v-160h-71v155q0 22 -1.5 35.5t-6.5 30t-17.5 24.5t-32.5 8q-42 0 -72 -42q3 -22 3 -51v-160h-71v155q0 22 -1 35t-6 30t-17 25t-32 8q-37 0 -71 -42v-211z" />
    <glyph glyph-name="n.sup" horiz-adv-x="371" 
d="M119 367h-71v308h65l3 -46q36 54 92 54q64 0 91.5 -40t27.5 -114v-162h-71v159q0 22 -1.5 35t-6.5 28.5t-18 23t-33 7.5q-48 0 -78 -48v-205z" />
    <glyph glyph-name="o.sup" horiz-adv-x="367" 
d="M183 683q69 0 114.5 -46.5t45.5 -115.5q0 -68 -45.5 -114.5t-114.5 -46.5q-68 0 -113.5 46.5t-45.5 114.5q0 69 45 115.5t114 46.5zM270 521q0 42 -24.5 70.5t-62.5 28.5t-62 -28.5t-24 -70.5q0 -41 24 -69.5t62 -28.5t62.5 28.5t24.5 69.5z" />
    <glyph glyph-name="p.sup" horiz-adv-x="385" 
d="M113 675l4 -39q30 47 96 47q63 0 105.5 -47t42.5 -115q0 -66 -42.5 -113.5t-106.5 -47.5q-58 0 -93 38v-181h-71v458h65zM199 620q-55 0 -80 -49v-109q29 -39 79 -39q43 0 66.5 29.5t23.5 69.5t-24.5 69t-64.5 29z" />
    <glyph glyph-name="q.sup" horiz-adv-x="385" 
d="M173 683q61 0 95 -43l4 35h65v-458h-71v186q-32 -43 -94 -43q-63 0 -105.5 47t-42.5 115q0 65 42.5 113t106.5 48zM186 423q56 0 80 48v110q-30 39 -79 39q-43 0 -66.5 -30t-23.5 -70t24.5 -68.5t64.5 -28.5z" />
    <glyph glyph-name="r.sup" horiz-adv-x="227" 
d="M119 367h-71v308h65l3 -44q30 52 75 52q19 0 37 -6l-16 -67q-13 7 -29 7q-41 0 -64 -42v-208z" />
    <glyph glyph-name="s.sup" horiz-adv-x="288" 
d="M252 645l-40 -44q-27 25 -61 25q-17 0 -27.5 -8.5t-10.5 -22.5q0 -22 54 -43q26 -10 42.5 -19.5t32 -29t15.5 -45.5q0 -48 -33.5 -73t-81.5 -25q-72 0 -117 51l44 41q34 -35 71 -35q20 0 33 9.5t13 27.5q0 10 -8.5 18.5t-17.5 12.5t-28 12q-20 8 -31.5 14t-26.5 17
t-22 26.5t-7 35.5q0 44 30.5 68.5t74.5 24.5q61 0 102 -38z" />
    <glyph glyph-name="t.sup" horiz-adv-x="230" 
d="M198 431l21 -54q-28 -17 -65 -17q-96 0 -96 114v141h-39v60h39l8 71h63v-71h82v-60h-82v-128q0 -21 1 -32t9 -22t24 -11q17 0 35 9z" />
    <glyph glyph-name="u.sup" horiz-adv-x="371" 
d="M252 675h71v-308h-65l-3 46q-36 -54 -92 -54q-64 0 -91.5 40t-27.5 114v162h71v-159q0 -22 1.5 -35t6.5 -28.5t18 -23t33 -7.5q48 0 78 48v205z" />
    <glyph glyph-name="v.sup" horiz-adv-x="308" 
d="M154 463h1l71 212h78l-123 -308h-60l-117 308h79z" />
    <glyph glyph-name="w.sup" horiz-adv-x="451" 
d="M226 571h-1l-58 -204h-78l-85 308h77l51 -212h1l60 212h68l55 -211h2l55 211h74l-90 -308h-75z" />
    <glyph glyph-name="x.sup" horiz-adv-x="330" 
d="M13 675h90l67 -98l67 98h89l-115 -151l114 -157h-91l-70 103l-71 -103h-89l119 155z" />
    <glyph glyph-name="y.sup" horiz-adv-x="306" 
d="M152 470h1l71 204h78l-172 -444l-64 24l48 127l-110 293h78z" />
    <glyph glyph-name="z.sup" horiz-adv-x="285" 
d="M33 400l126 215h-132v60h227v-31l-127 -216h137v-61h-231v33z" />
    <glyph glyph-name="zeroinferior" horiz-adv-x="337" 
d="M169 -119q72 0 72 143q0 144 -72 144t-72 -144q0 -143 72 -143zM169 231q69 0 107.5 -55t38.5 -152t-38.5 -151.5t-107.5 -54.5t-107.5 54.5t-38.5 151.5t38.5 152t107.5 55z" />
    <glyph glyph-name="oneinferior" horiz-adv-x="216" 
d="M162 -178h-72v319q-10 -5 -58 -26v66q42 23 83 44h47v-403z" />
    <glyph glyph-name="twoinferior" horiz-adv-x="319" 
d="M38 -120q79 82 137 164q32 44 32 77q0 21 -15.5 34t-37.5 13q-23 0 -38 -16t-15 -42l-72 12q4 48 41.5 78t85.5 30q50 0 87.5 -30t37.5 -78q0 -52 -41 -111q-36 -51 -106 -127h165v-62h-261v58z" />
    <glyph glyph-name="threeinferior" horiz-adv-x="319" 
d="M98 -5v64q37 2 51 6q21 5 34 19t13 33q0 22 -16 36.5t-41 14.5q-46 0 -57 -42l-60 26q12 36 43.5 57t73.5 21q55 0 92.5 -29.5t37.5 -77.5q0 -26 -13.5 -49.5t-35.5 -35.5q30 -11 49 -37.5t19 -60.5q0 -57 -40 -90t-99 -33q-42 0 -78.5 19.5t-53.5 56.5l59 29
q22 -43 72 -43q27 0 46.5 15t19.5 43q0 29 -22 45.5t-56 16.5q-23 0 -38 -4z" />
    <glyph glyph-name="fourinferior" horiz-adv-x="334" 
d="M20 -8q28 36 172 233h73v-239h58v-61h-58v-103h-71v103h-174v67zM194 -14v142q-62 -97 -98 -142h98z" />
    <glyph glyph-name="fiveinferior" horiz-adv-x="315" 
d="M269 163h-144q-1 -38 -7 -96q23 10 52 10q50 0 84.5 -35.5t34.5 -86.5q0 -59 -39.5 -98.5t-98.5 -39.5q-41 0 -77 20t-54 55l60 31q19 -43 67 -43q31 0 49.5 21t18.5 50q0 28 -19 46.5t-48 18.5q-35 0 -56 -25l-49 32q9 84 13 202h213v-62z" />
    <glyph glyph-name="sixinferior" horiz-adv-x="330" 
d="M228 247l26 -59q-118 -51 -146 -137q32 29 77 29q53 0 88 -37t35 -91q0 -57 -38 -96t-96 -39q-69 0 -110.5 47.5t-41.5 114.5q0 92 58 162t148 106zM169 19q-48 0 -73 -41q0 -43 17.5 -71.5t55.5 -28.5q30 0 47.5 21t17.5 51q0 31 -18 50t-47 19z" />
    <glyph glyph-name="seveninferior" horiz-adv-x="279" 
d="M268 225v-48q-94 -197 -164 -367l-65 29q27 65 147 323h-180v63h262z" />
    <glyph glyph-name="eightinferior" horiz-adv-x="345" 
d="M301 120q0 -55 -50 -86q61 -35 61 -99q0 -50 -39 -84t-100 -34t-100.5 34t-39.5 84q0 64 61 99q-49 31 -49 86q0 47 36 78.5t92 31.5t92 -31.5t36 -78.5zM173 0q-27 0 -46.5 -17.5t-19.5 -43.5q0 -25 19.5 -42.5t46.5 -17.5t46 17.5t19 42.5q0 26 -19 43.5t-46 17.5z
M173 168q-23 0 -39.5 -15t-16.5 -37t16.5 -38t39.5 -16t39.5 16t16.5 38t-16.5 37t-39.5 15z" />
    <glyph glyph-name="nineinferior" horiz-adv-x="330" 
d="M103 -200l-26 59q118 51 146 137q-32 -29 -77 -29q-53 0 -88 37t-35 91q0 57 38 96t96 39q69 0 110.5 -47.5t41.5 -114.5q0 -92 -58 -162t-148 -106zM162 28q48 0 73 41q0 43 -17.5 71.5t-55.5 28.5q-30 0 -47.5 -21t-17.5 -51q0 -31 18 -50t47 -19z" />
    <glyph glyph-name="parenleftinferior" horiz-adv-x="217" 
d="M221 -233l-25 -50q-167 102 -167 289q0 184 167 287l26 -50q-123 -79 -123 -237q0 -161 122 -239z" />
    <glyph glyph-name="parenrightinferior" horiz-adv-x="217" 
d="M20 -283l-25 50q123 78 123 239q0 156 -123 237l26 50q167 -103 167 -287q0 -187 -168 -289z" />
    <glyph glyph-name="minusinferior" horiz-adv-x="341" 
d="M31 39h279v-61h-279v61z" />
    <glyph glyph-name="plusinferior" horiz-adv-x="334" 
d="M136 -142v120h-119v61h119v120h61v-120h120v-61h-120v-120h-61z" />
    <glyph glyph-name="equalinferior" horiz-adv-x="341" 
d="M31 93h279v-60h-279v60zM31 -15h279v-61h-279v61z" />
    <glyph glyph-name="a.sinf" horiz-adv-x="340" 
d="M167 12q26 0 58 -7v8q0 67 -66 67q-47 0 -95 -27l-20 54q62 31 128 31q124 0 124 -129v-187h-63l-4 29q-30 -36 -87 -36q-46 0 -78.5 25t-32.5 71q0 53 39.5 77t96.5 24zM225 -41q-29 6 -47 6q-31 0 -54 -12t-23 -39q0 -23 15 -34.5t38 -11.5q35 0 71 31v60z" />
    <glyph glyph-name="b.sinf" horiz-adv-x="385" 
d="M212 -185q-63 0 -96 43l-3 -36h-65v450h71v-178q32 44 94 44q63 0 105.5 -47t42.5 -115q0 -66 -42.5 -113.5t-106.5 -47.5zM199 75q-55 0 -80 -49v-109q29 -39 79 -39q43 0 66.5 29.5t23.5 69.5t-24.5 69t-64.5 29z" />
    <glyph glyph-name="c.sinf" horiz-adv-x="294" 
d="M248 -99l37 -51q-39 -35 -104 -35q-68 0 -112.5 45t-44.5 116q0 68 46 115t114 47q55 0 99 -33l-36 -53q-28 23 -61 23q-37 0 -63 -29t-26 -70q0 -43 25.5 -70.5t62.5 -27.5q35 0 63 23z" />
    <glyph glyph-name="d.sinf" horiz-adv-x="385" 
d="M272 -178l-4 40q-29 -47 -96 -47q-63 0 -105.5 47t-42.5 115q0 65 42.5 113t106.5 48q57 0 93 -39v173h71v-450h-65zM186 -122q56 0 80 48v110q-30 39 -79 39q-43 0 -66.5 -30t-23.5 -70t24.5 -68.5t64.5 -28.5z" />
    <glyph glyph-name="e.sinf" horiz-adv-x="349" 
d="M269 -79l49 -32q-50 -74 -139 -74q-70 0 -112.5 45t-42.5 114q0 70 45 117t111 47q62 0 103.5 -41t41.5 -102q0 -15 -4 -37h-225q4 -37 27.5 -60.5t59.5 -23.5q58 0 86 47zM181 80q-63 0 -81 -70h152q-2 30 -22 50t-49 20z" />
    <glyph glyph-name="f.sinf" horiz-adv-x="220" 
d="M237 264l-21 -57q-19 9 -41 9q-26 0 -34 -13.5t-8 -43.5v-29h80v-60h-80v-248h-71v248h-34v60h34v34q0 57 24 86t82 29q34 0 69 -15z" />
    <glyph glyph-name="g.sinf" horiz-adv-x="381" 
d="M337 130v-292q0 -77 -44 -114.5t-111 -37.5q-80 0 -140 42l27 60q52 -39 111 -39q38 0 62 20t24 61v35q-33 -43 -94 -43q-63 0 -105.5 46t-42.5 112q0 65 42 111.5t107 46.5q61 0 95 -43l4 35h65zM266 -67v103q-30 39 -79 39q-43 0 -66.5 -28.5t-23.5 -67.5t24.5 -66.5
t63.5 -27.5q57 0 81 48z" />
    <glyph glyph-name="h.sinf" horiz-adv-x="371" 
d="M119 272v-184q36 50 95 50q113 0 113 -156v-160h-71v155q0 30 -2.5 47.5t-16.5 34t-41 16.5q-47 0 -77 -48v-205h-71v450h71z" />
    <glyph glyph-name="i.sinf" horiz-adv-x="167" 
d="M119 -178h-71v308h71v-308zM119 181h-71v68h71v-68z" />
    <glyph glyph-name="j.sinf" horiz-adv-x="184" 
d="M-27 -300l20 57q19 -7 30 -7q42 0 42 56v324h71v-332q0 -53 -22.5 -82t-77.5 -29q-32 0 -63 13zM136 181h-71v68h71v-68z" />
    <glyph glyph-name="k.sinf" horiz-adv-x="326" 
d="M119 272v-280h1l111 138h84l-110 -127l118 -181h-87l-79 125l-38 -45v-80h-71v450h71z" />
    <glyph glyph-name="l.sinf" horiz-adv-x="167" 
d="M119 272v-450h-71v450h71z" />
    <glyph glyph-name="m.sinf" horiz-adv-x="559" 
d="M119 -178h-71v308h65l3 -41q37 49 93 49q61 0 90 -54q38 54 105 54q111 0 111 -156v-160h-71v155q0 22 -1.5 35.5t-6.5 30t-17.5 24.5t-32.5 8q-42 0 -72 -42q3 -23 3 -51v-160h-71v155q0 22 -1 35t-6 30t-17 25t-32 8q-37 0 -71 -42v-211z" />
    <glyph glyph-name="n.sinf" horiz-adv-x="371" 
d="M119 -178h-71v308h65l3 -46q36 54 92 54q64 0 91.5 -40t27.5 -114v-162h-71v159q0 22 -1.5 35t-6.5 28.5t-18 23t-33 7.5q-48 0 -78 -48v-205z" />
    <glyph glyph-name="o.sinf" horiz-adv-x="367" 
d="M183 138q69 0 114.5 -46.5t45.5 -115.5q0 -68 -45.5 -114.5t-114.5 -46.5q-68 0 -113.5 46.5t-45.5 114.5q0 69 45 115.5t114 46.5zM270 -24q0 42 -24.5 70.5t-62.5 28.5t-62 -28.5t-24 -70.5q0 -41 24 -69.5t62 -28.5t62.5 28.5t24.5 69.5z" />
    <glyph glyph-name="p.sinf" horiz-adv-x="385" 
d="M113 130l4 -39q30 47 96 47q63 0 105.5 -47t42.5 -115q0 -66 -42.5 -113.5t-106.5 -47.5q-58 0 -93 38v-181h-71v458h65zM199 75q-55 0 -80 -49v-109q29 -39 79 -39q43 0 66.5 29.5t23.5 69.5t-24.5 69t-64.5 29z" />
    <glyph glyph-name="q.sinf" horiz-adv-x="385" 
d="M173 138q61 0 95 -43l4 35h65v-458h-71v186q-32 -43 -94 -43q-63 0 -105.5 47t-42.5 115q0 65 42.5 113t106.5 48zM186 -122q56 0 80 48v110q-30 39 -79 39q-43 0 -66.5 -30t-23.5 -70t24.5 -68.5t64.5 -28.5z" />
    <glyph glyph-name="r.sinf" horiz-adv-x="227" 
d="M119 -178h-71v308h65l3 -44q30 52 75 52q19 0 37 -6l-16 -67q-13 7 -29 7q-41 0 -64 -42v-208z" />
    <glyph glyph-name="s.sinf" horiz-adv-x="288" 
d="M252 100l-40 -44q-27 25 -61 25q-17 0 -27.5 -8.5t-10.5 -22.5q0 -22 54 -43q26 -10 42.5 -19.5t32 -29t15.5 -45.5q0 -48 -33.5 -73t-81.5 -25q-72 0 -117 51l44 41q34 -35 71 -35q20 0 33 9.5t13 27.5q0 10 -8.5 18.5t-17.5 12.5t-28 12q-20 8 -31.5 14t-26.5 17
t-22 26.5t-7 35.5q0 44 30.5 68.5t74.5 24.5q61 0 102 -38z" />
    <glyph glyph-name="t.sinf" horiz-adv-x="230" 
d="M198 -114l21 -54q-28 -17 -65 -17q-96 0 -96 114v141h-39v60h39l8 71h63v-71h82v-60h-82v-128q0 -21 1 -32t9 -22t24 -11q17 0 35 9z" />
    <glyph glyph-name="u.sinf" horiz-adv-x="371" 
d="M252 130h71v-308h-65l-3 46q-36 -54 -92 -54q-64 0 -91.5 40t-27.5 114v162h71v-159q0 -22 1.5 -35t6.5 -28.5t18 -23t33 -7.5q48 0 78 48v205z" />
    <glyph glyph-name="v.sinf" horiz-adv-x="308" 
d="M154 -82h1l71 212h78l-123 -308h-60l-117 308h79z" />
    <glyph glyph-name="w.sinf" horiz-adv-x="451" 
d="M226 26h-1l-58 -204h-78l-85 308h77l51 -212h1l60 212h68l55 -211h2l55 211h74l-90 -308h-75z" />
    <glyph glyph-name="x.sinf" horiz-adv-x="330" 
d="M13 130h90l67 -98l67 98h89l-115 -151l114 -157h-91l-70 103l-71 -103h-89l119 155z" />
    <glyph glyph-name="y.sinf" horiz-adv-x="306" 
d="M152 -75h1l71 204h78l-172 -444l-64 24l48 127l-110 293h78z" />
    <glyph glyph-name="z.sinf" horiz-adv-x="285" 
d="M33 -145l126 215h-132v60h227v-31l-127 -216h137v-61h-231v33z" />
    <glyph glyph-name="zero.num" horiz-adv-x="314" 
d="M157 648q-62 0 -62 -127t62 -127t62 127t-62 127zM290 521q0 -88 -35 -137t-98 -49t-98 49t-35 137t35 137t98 49t98 -49t35 -137z" />
    <glyph glyph-name="one.num" horiz-adv-x="223" 
d="M166 338h-69v283q-26 -12 -53 -23v62q2 1 32 16.5t45 23.5h45v-362z" />
    <glyph glyph-name="two.num" horiz-adv-x="299" 
d="M38 394q72 74 125 147q28 38 28 67q0 18 -13 29t-33 11t-33 -14t-13 -38l-69 12q3 44 37.5 71.5t80.5 27.5t80.5 -27.5t34.5 -71.5q0 -43 -39 -99q-32 -46 -93 -110h147v-58h-240v53z" />
    <glyph glyph-name="three.num" horiz-adv-x="301" 
d="M95 494v60q30 0 45 4q41 11 41 47q0 19 -14 31t-37 12q-39 0 -48 -38l-59 26q12 33 41.5 52t66.5 19q50 0 85 -27t35 -70q0 -23 -12.5 -44t-32.5 -32q28 -10 45 -34t17 -55q0 -50 -37 -80t-91 -30q-39 0 -72 18t-50 53l58 27q18 -40 64 -40q24 0 40.5 13.5t16.5 37.5
q0 25 -19.5 39t-50.5 14q-20 0 -32 -3z" />
    <glyph glyph-name="four.num" horiz-adv-x="309" 
d="M21 491q78 102 154 209h70v-213h52v-57h-52v-89h-68v89h-156v61zM177 487v122q-79 -116 -83 -122h83z" />
    <glyph glyph-name="five.num" horiz-adv-x="295" 
d="M251 642h-130q0 -4 -6 -83q18 9 46 9q45 0 76 -32.5t31 -77.5q0 -53 -36 -88t-90 -35q-85 0 -121 68l58 29q17 -39 60 -39q27 0 42.5 17.5t15.5 43.5q0 25 -16.5 41t-41.5 16q-31 0 -50 -23l-45 31q8 83 12 181h195v-58z" />
    <glyph glyph-name="six.num" horiz-adv-x="309" 
d="M212 722l25 -55q-105 -45 -132 -119q29 24 67 24q49 0 81 -33t32 -81q0 -53 -34.5 -88.5t-88.5 -35.5q-63 0 -100.5 43t-37.5 104q0 83 53 145.5t135 95.5zM94 480q0 -38 15.5 -63.5t48.5 -25.5q26 0 41.5 18t15.5 45q0 28 -16 44.5t-42 16.5q-42 0 -63 -35z" />
    <glyph glyph-name="seven.num" horiz-adv-x="259" 
d="M247 656q-82 -169 -149 -331l-63 29q49 113 136 287h-165v59h241v-44z" />
    <glyph glyph-name="eight.num" horiz-adv-x="326" 
d="M236 530q54 -29 54 -89q0 -45 -36 -75.5t-91 -30.5q-56 0 -91.5 30.5t-35.5 75.5q0 58 54 89q-45 28 -45 77q0 42 33 71t85 29t85 -29t33 -71q0 -49 -45 -77zM114 603q0 -20 14 -33.5t35 -13.5q20 0 34.5 14t14.5 33q0 20 -14.5 33.5t-34.5 13.5q-21 0 -35 -13.5
t-14 -33.5zM106 445q0 -23 16 -38t41 -15t41 15t16 38t-16 38.5t-41 15.5t-41 -15.5t-16 -38.5z" />
    <glyph glyph-name="nine.num" horiz-adv-x="309" 
d="M97 319l-25 55q105 45 132 119q-29 -24 -67 -24q-49 0 -81 33t-32 81q0 53 34.5 88.5t88.5 35.5q63 0 100.5 -43t37.5 -104q0 -83 -53 -145.5t-135 -95.5zM215 561q0 38 -15.5 63.5t-48.5 25.5q-26 0 -41.5 -18t-15.5 -45q0 -28 16 -44.5t42 -16.5q42 0 63 35z" />
    <glyph glyph-name="parenleft.ordn" horiz-adv-x="245" 
d="M244 321l-25 -51q-183 112 -183 319q0 206 181 320l28 -51q-138 -89 -138 -269q0 -181 137 -268z" />
    <glyph glyph-name="parenright.ordn" horiz-adv-x="245" 
d="M26 270l-25 51q137 87 137 268q0 180 -138 269l28 51q181 -114 181 -320q0 -207 -183 -319z" />
    <glyph glyph-name="hyphen.ordn" horiz-adv-x="308" 
d="M241 544h-174v63h174v-63z" />
    <glyph glyph-name="comma.ordn" horiz-adv-x="184" 
d="M130 471l-45 -172h-69l35 172h79z" />
    <glyph glyph-name="period.ordn" horiz-adv-x="185" 
d="M133 386h-81v85h81v-85z" />
    <glyph glyph-name="minus.ordn" horiz-adv-x="382" 
d="M39 625h304v-62h-304v62z" />
    <glyph glyph-name="plus.ordn" horiz-adv-x="369" 
d="M153 427v136h-135v62h135v135h62v-135h136v-62h-136v-136h-62z" />
    <glyph glyph-name="equal.ordn" horiz-adv-x="382" 
d="M39 681h304v-60h-304v60zM39 567h304v-62h-304v62z" />
    <glyph glyph-name="a.ordn" horiz-adv-x="381" 
d="M254 587v10q0 76 -75 76q-52 0 -106 -29l-21 57q72 33 138 33q136 0 136 -143v-205h-65l-4 34q-35 -42 -97 -42q-51 0 -86.5 27.5t-35.5 77.5q0 59 43.5 85.5t107.5 26.5q29 0 65 -8zM254 538q-31 7 -55 7q-90 0 -90 -58q0 -26 17.5 -39t45.5 -13q39 0 82 36v67z" />
    <glyph glyph-name="b.ordn" horiz-adv-x="433" 
d="M60 386v500h72v-203q35 51 105 51q71 0 118.5 -52t47.5 -127q0 -71 -47 -124t-120 -53q-68 0 -106 47l-2 -39h-68zM132 612v-123q34 -46 92 -46q50 0 77.5 34.5t27.5 79.5q0 46 -29 79t-75 33q-27 0 -53.5 -15t-39.5 -42z" />
    <glyph glyph-name="c.ordn" horiz-adv-x="325" 
d="M277 468l37 -53q-43 -37 -110 -37q-74 0 -124 50t-50 128q0 75 51 126.5t126 51.5q59 0 104 -34l-35 -56q-30 25 -70 25q-43 0 -72.5 -33t-29.5 -80q0 -49 30 -81t72 -32q41 0 71 25z" />
    <glyph glyph-name="d.ordn" horiz-adv-x="433" 
d="M301 689v197h72v-500h-68l-3 45q-36 -53 -107 -53q-70 0 -117.5 52t-47.5 126q0 72 47 125t120 53q62 0 104 -45zM209 669q-50 0 -77.5 -34.5t-27.5 -79.5t29 -78.5t75 -33.5q27 0 53 15t40 42v123q-36 46 -92 46z" />
    <glyph glyph-name="e.ordn" horiz-adv-x="387" 
d="M300 492l50 -33q-54 -81 -151 -81q-78 0 -123.5 49.5t-45.5 127.5q0 76 49 127.5t121 51.5q68 0 112.5 -45t44.5 -113q0 -8 -3 -38h-251q4 -43 30.5 -71t69.5 -28q66 0 97 53zM201 674q-37 0 -61 -22.5t-33 -59.5h176q-2 35 -25 58.5t-57 23.5z" />
    <glyph glyph-name="f.ordn" horiz-adv-x="248" 
d="M260 877l-21 -57q-20 10 -44 10q-31 0 -40.5 -16.5t-9.5 -52.5v-35h90v-62h-90v-278h-72v278h-38v62h38v41q0 62 26 94.5t88 32.5q37 0 73 -17z" />
    <glyph glyph-name="g.ordn" horiz-adv-x="428" 
d="M195 386q-70 0 -117.5 50t-47.5 124q0 71 47 122.5t120 51.5q64 0 105 -47l3 39h68v-321q0 -87 -48.5 -128t-122.5 -41q-86 0 -153 46l27 61q59 -42 124 -42q44 0 72.5 23t28.5 70v42q-37 -50 -106 -50zM209 669q-50 0 -77.5 -33t-27.5 -77q0 -45 28.5 -76.5t74.5 -31.5
q28 0 54.5 14.5t39.5 42.5v115q-36 46 -92 46z" />
    <glyph glyph-name="h.ordn" horiz-adv-x="419" 
d="M132 386h-72v500h72v-211q39 59 107 59q125 0 125 -171v-177h-72v171q0 26 -1.5 41.5t-7.5 34t-21 27.5t-39 9q-26 0 -50.5 -15.5t-40.5 -41.5v-226z" />
    <glyph glyph-name="i.ordn" horiz-adv-x="192" 
d="M132 386h-72v340h72v-340zM132 785h-72v73h72v-73z" />
    <glyph glyph-name="j.ordn" horiz-adv-x="197" 
d="M-36 252l20 57q18 -8 33 -8q30 0 39 16t9 51v358h72v-368q0 -121 -106 -121q-37 0 -67 15zM137 785h-72v73h72v-73z" />
    <glyph glyph-name="k.ordn" horiz-adv-x="360" 
d="M132 886v-320l128 160h86l-119 -140l129 -200h-88l-90 143l-46 -54v-89h-72v500h72z" />
    <glyph glyph-name="l.ordn" horiz-adv-x="192" 
d="M132 886v-500h-72v500h72z" />
    <glyph glyph-name="m.ordn" horiz-adv-x="627" 
d="M132 386h-72v340h67l2 -49q19 27 47.5 42t56.5 15q71 0 100 -61q42 61 117 61q122 0 122 -171v-177h-72v171q0 25 -1.5 40.5t-7.5 34.5t-20.5 28t-37.5 9q-48 0 -85 -50q4 -23 4 -56v-177h-72v171q0 24 -1.5 39.5t-7 34.5t-20 28.5t-36.5 9.5q-44 0 -83 -52v-231z" />
    <glyph glyph-name="n.ordn" horiz-adv-x="419" 
d="M132 386h-72v340h67l3 -53q40 61 109 61q125 0 125 -171v-177h-72v171q0 26 -1.5 41.5t-7.5 34t-21 27.5t-39 9q-26 0 -50.5 -15.5t-40.5 -41.5v-226z" />
    <glyph glyph-name="o.ordn" horiz-adv-x="410" 
d="M205 734q75 0 125 -51.5t50 -126.5t-50 -126.5t-125 -51.5t-125 51.5t-50 126.5t50 126.5t125 51.5zM306 556q0 48 -28.5 80.5t-72.5 32.5t-72.5 -32.5t-28.5 -80.5t28.5 -80.5t72.5 -32.5t72.5 32.5t28.5 80.5z" />
    <glyph glyph-name="p.ordn" horiz-adv-x="433" 
d="M132 220h-72v506h68l2 -45q17 26 46.5 39.5t60.5 13.5q71 0 118.5 -52t47.5 -127q0 -71 -47 -124t-120 -53q-65 0 -104 44v-202zM224 443q50 0 77.5 34.5t27.5 79.5q0 46 -29 79t-75 33q-27 0 -53.5 -15t-39.5 -42v-123q34 -46 92 -46z" />
    <glyph glyph-name="q.ordn" horiz-adv-x="433" 
d="M197 734q64 0 105 -47l3 39h68v-506h-72v209q-37 -51 -106 -51q-70 0 -117.5 52t-47.5 126q0 72 47 125t120 53zM208 443q27 0 53 15t40 42v123q-36 46 -92 46q-50 0 -77.5 -34.5t-27.5 -79.5t29 -78.5t75 -33.5z" />
    <glyph glyph-name="r.ordn" horiz-adv-x="261" 
d="M214 734q17 0 39 -5l-15 -71q-15 6 -32 6q-46 0 -74 -49v-229h-72v340h68l2 -52q34 60 84 60z" />
    <glyph glyph-name="s.ordn" horiz-adv-x="320" 
d="M274 693l-42 -44q-28 26 -66 26q-20 0 -32.5 -10.5t-12.5 -27.5q0 -11 10 -21t20 -14.5t31 -13.5q22 -9 35 -15.5t30 -19t25.5 -29.5t8.5 -39q0 -53 -36 -80t-89 -27q-76 0 -125 55l47 42q36 -38 77 -38q23 0 38.5 11.5t15.5 32.5q0 12 -10.5 22.5t-21 15t-33.5 14.5
q-22 9 -33.5 15t-27.5 18t-23.5 28.5t-7.5 37.5q0 49 33 75.5t80 26.5q68 0 109 -41z" />
    <glyph glyph-name="t.ordn" horiz-adv-x="247" 
d="M208 451l22 -57q-30 -16 -70 -16q-103 0 -103 126v160h-43v62h43l6 78h66v-78h92v-62h-92v-146q0 -77 42 -77q19 0 37 10z" />
    <glyph glyph-name="u.ordn" horiz-adv-x="419" 
d="M287 500v226h72v-340h-67l-3 53q-40 -61 -109 -61q-125 0 -125 171v177h72v-171q0 -26 1.5 -41.5t7.5 -34t21 -27.5t39 -9q26 0 50.5 15.5t40.5 41.5z" />
    <glyph glyph-name="v.ordn" horiz-adv-x="337" 
d="M331 726l-135 -340h-62l-128 340h81l82 -246h2l81 246h79z" />
    <glyph glyph-name="w.ordn" horiz-adv-x="495" 
d="M285 726l64 -245h2l63 245h75l-99 -340h-76l-66 240h-1l-68 -240h-80l-93 340h77l59 -245h2l69 245h72z" />
    <glyph glyph-name="x.ordn" horiz-adv-x="353" 
d="M347 386h-92l-79 119l-80 -119h-90l128 171l-120 169h92l77 -113l75 113h89l-124 -166z" />
    <glyph glyph-name="y.ordn" horiz-adv-x="334" 
d="M328 726l-189 -491l-63 25l52 140l-122 326h80l80 -239h2l82 239h78z" />
    <glyph glyph-name="z.ordn" horiz-adv-x="317" 
d="M42 420l142 244h-150v62h246v-33l-144 -245h155v-62h-249v34z" />
    <glyph glyph-name="zero.denom" horiz-adv-x="314" 
d="M157 306q-62 0 -62 -127t62 -127t62 127t-62 127zM290 179q0 -88 -35 -137t-98 -49t-98 49t-35 137t35 137t98 49t98 -49t35 -137z" />
    <glyph glyph-name="one.denom" horiz-adv-x="223" 
d="M166 0h-69v283q-25 -12 -53 -23v62q2 1 32 16.5t45 23.5h45v-362z" />
    <glyph glyph-name="two.denom" horiz-adv-x="299" 
d="M38 53q72 74 125 147q28 38 28 67q0 18 -13 29t-33 11t-33 -14t-13 -38l-69 12q3 44 37.5 71.5t80.5 27.5t80.5 -27.5t34.5 -71.5q0 -43 -39 -99q-32 -46 -93 -110h147v-58h-240v53z" />
    <glyph glyph-name="three.denom" horiz-adv-x="301" 
d="M95 152v60q30 0 45 4q41 11 41 47q0 19 -14 31t-37 12q-39 0 -48 -38l-59 26q12 33 41.5 52t66.5 19q50 0 85 -27t35 -70q0 -23 -12.5 -44t-32.5 -32q28 -10 45 -34t17 -55q0 -50 -37 -80t-91 -30q-39 0 -72 18t-50 53l58 27q18 -40 64 -40q24 0 40.5 13.5t16.5 37.5
q0 25 -19.5 39t-50.5 14q-20 0 -32 -3z" />
    <glyph glyph-name="four.denom" horiz-adv-x="309" 
d="M21 150q78 102 154 209h70v-213h52v-57h-52v-89h-68v89h-156v61zM177 146v122q-79 -116 -83 -122h83z" />
    <glyph glyph-name="five.denom" horiz-adv-x="295" 
d="M251 300h-130q0 -4 -6 -83q18 9 46 9q45 0 76 -32.5t31 -77.5q0 -53 -36 -88t-90 -35q-85 0 -121 68l58 29q17 -39 60 -39q27 0 42.5 17.5t15.5 43.5q0 25 -16.5 41t-41.5 16q-31 0 -50 -23l-45 31q8 83 12 181h195v-58z" />
    <glyph glyph-name="six.denom" horiz-adv-x="309" 
d="M212 380l25 -55q-105 -45 -132 -119q29 24 67 24q49 0 81 -33t32 -81q0 -53 -34.5 -88.5t-88.5 -35.5q-63 0 -100.5 43t-37.5 104q0 83 53 145.5t135 95.5zM94 138q0 -38 15.5 -63.5t48.5 -25.5q26 0 41.5 18t15.5 45q0 28 -16 44.5t-42 16.5q-42 0 -63 -35z" />
    <glyph glyph-name="seven.denom" horiz-adv-x="259" 
d="M247 314q-82 -169 -149 -331l-63 29q49 113 136 287h-165v59h241v-44z" />
    <glyph glyph-name="eight.denom" horiz-adv-x="326" 
d="M236 188q54 -29 54 -89q0 -45 -36 -75.5t-91 -30.5q-56 0 -91.5 30.5t-35.5 75.5q0 58 54 89q-45 28 -45 77q0 42 33 71t85 29t85 -29t33 -71q0 -49 -45 -77zM114 261q0 -20 14 -33.5t35 -13.5q20 0 34.5 14t14.5 33q0 20 -14.5 33.5t-34.5 13.5q-21 0 -35 -13.5
t-14 -33.5zM106 103q0 -23 16 -38t41 -15t41 15t16 38t-16 38.5t-41 15.5t-41 -15.5t-16 -38.5z" />
    <glyph glyph-name="nine.denom" horiz-adv-x="309" 
d="M97 -23l-25 55q105 45 132 119q-29 -24 -67 -24q-49 0 -81 33t-32 81q0 53 34.5 88.5t88.5 35.5q63 0 100.5 -43t37.5 -104q0 -83 -53 -145.5t-135 -95.5zM215 219q0 38 -15.5 63.5t-48.5 25.5q-26 0 -41.5 -18t-15.5 -45q0 -28 16 -44.5t42 -16.5q42 0 63 35z" />
    <glyph glyph-name="onefifth" horiz-adv-x="779" 
d="M577 712l55 -40l-497 -684l-55 40zM224 338h-69v283q-26 -12 -53 -23v62q2 1 32 16.5t45 23.5h45v-362zM682 300h-130q0 -4 -6 -83q18 9 46 9q45 0 76 -32.5t31 -77.5q0 -53 -36 -88t-90 -35q-85 0 -121 68l58 29q17 -39 60 -39q27 0 42.5 17.5t15.5 43.5q0 25 -16.5 41
t-41.5 16q-31 0 -50 -23l-45 31q8 83 12 181h195v-58z" />
    <glyph glyph-name="twofifths" horiz-adv-x="867" 
d="M665 712l55 -40l-497 -684l-55 40zM88 394q72 74 125 147q28 38 28 67q0 18 -13 29t-33 11t-33 -14t-13 -38l-69 12q3 44 37.5 71.5t80.5 27.5t80.5 -27.5t34.5 -71.5q0 -43 -39 -99q-32 -46 -93 -110h147v-58h-240v53zM770 300h-130q0 -4 -6 -83q18 9 46 9
q45 0 76 -32.5t31 -77.5q0 -53 -36 -88t-90 -35q-85 0 -121 68l58 29q17 -39 60 -39q27 0 42.5 17.5t15.5 43.5q0 25 -16.5 41t-41.5 16q-31 0 -50 -23l-45 31q8 83 12 181h195v-58z" />
    <glyph glyph-name="threefifths" horiz-adv-x="846" 
d="M644 712l55 -40l-497 -684l-55 40zM157 494v60q30 0 45 4q41 11 41 47q0 19 -14 31t-37 12q-39 0 -48 -38l-59 26q12 33 41.5 52t66.5 19q50 0 85 -27t35 -70q0 -23 -12.5 -44t-32.5 -32q28 -10 45 -34t17 -55q0 -50 -37 -80t-91 -30q-39 0 -72 18t-50 53l58 27
q18 -40 64 -40q24 0 40.5 13.5t16.5 37.5q0 25 -19.5 39t-50.5 14q-20 0 -32 -3zM749 300h-130q0 -4 -6 -83q18 9 46 9q45 0 76 -32.5t31 -77.5q0 -53 -36 -88t-90 -35q-85 0 -121 68l58 29q17 -39 60 -39q27 0 42.5 17.5t15.5 43.5q0 25 -16.5 41t-41.5 16q-31 0 -50 -23
l-45 31q8 83 12 181h195v-58z" />
    <glyph glyph-name="fourfifths" horiz-adv-x="892" 
d="M690 712l55 -40l-497 -684l-55 40zM80 491q78 102 154 209h70v-213h52v-57h-52v-89h-68v89h-156v61zM236 487v122q-79 -116 -83 -122h83zM795 300h-130q0 -4 -6 -83q18 9 46 9q45 0 76 -32.5t31 -77.5q0 -53 -36 -88t-90 -35q-85 0 -121 68l58 29q17 -39 60 -39
q27 0 42.5 17.5t15.5 43.5q0 25 -16.5 41t-41.5 16q-31 0 -50 -23l-45 31q8 83 12 181h195v-58z" />
    <glyph glyph-name="onesixth" horiz-adv-x="748" 
d="M577 712l55 -40l-497 -684l-55 40zM224 338h-69v283q-26 -12 -53 -23v62q2 1 32 16.5t45 23.5h45v-362zM595 380l25 -55q-105 -45 -132 -119q29 24 67 24q49 0 81 -33t32 -81q0 -53 -34.5 -88.5t-88.5 -35.5q-63 0 -100.5 43t-37.5 104q0 83 53 145.5t135 95.5zM477 138
q0 -38 15.5 -63.5t48.5 -25.5q26 0 41.5 18t15.5 45q0 28 -16 44.5t-42 16.5q-42 0 -63 -35z" />
    <glyph glyph-name="fivesixths" horiz-adv-x="802" 
d="M631 712l55 -40l-497 -684l-55 40zM310 642h-130q0 -4 -6 -83q18 9 46 9q45 0 76 -32.5t31 -77.5q0 -53 -36 -88t-90 -35q-85 0 -121 68l58 29q17 -39 60 -39q27 0 42.5 17.5t15.5 43.5q0 25 -16.5 41t-41.5 16q-31 0 -50 -23l-45 31q8 83 12 181h195v-58zM649 380
l25 -55q-105 -45 -132 -119q29 24 67 24q49 0 81 -33t32 -81q0 -53 -34.5 -88.5t-88.5 -35.5q-63 0 -100.5 43t-37.5 104q0 83 53 145.5t135 95.5zM531 138q0 -38 15.5 -63.5t48.5 -25.5q26 0 41.5 18t15.5 45q0 28 -16 44.5t-42 16.5q-42 0 -63 -35z" />
    <glyph glyph-name="oneseventh" horiz-adv-x="796" 
d="M577 712l55 -40l-497 -684l-55 40zM224 338h-69v283q-26 -12 -53 -23v62q2 1 32 16.5t45 23.5h45v-362zM716 314q-82 -169 -149 -331l-63 29q49 113 136 287h-165v59h241v-44z" />
    <glyph glyph-name="twosevenths" horiz-adv-x="884" 
d="M665 712l55 -40l-497 -684l-55 40zM88 394q72 74 125 147q28 38 28 67q0 18 -13 29t-33 11t-33 -14t-13 -38l-69 12q3 44 37.5 71.5t80.5 27.5t80.5 -27.5t34.5 -71.5q0 -43 -39 -99q-32 -46 -93 -110h147v-58h-240v53zM804 314q-82 -169 -149 -331l-63 29
q49 113 136 287h-165v59h241v-44z" />
    <glyph glyph-name="threesevenths" horiz-adv-x="863" 
d="M644 712l55 -40l-497 -684l-55 40zM157 494v60q30 0 45 4q41 11 41 47q0 19 -14 31t-37 12q-39 0 -48 -38l-59 26q12 33 41.5 52t66.5 19q50 0 85 -27t35 -70q0 -23 -12.5 -44t-32.5 -32q28 -10 45 -34t17 -55q0 -50 -37 -80t-91 -30q-39 0 -72 18t-50 53l58 27
q18 -40 64 -40q24 0 40.5 13.5t16.5 37.5q0 25 -19.5 39t-50.5 14q-20 0 -32 -3zM783 314q-82 -169 -149 -331l-63 29q49 113 136 287h-165v59h241v-44z" />
    <glyph glyph-name="foursevenths" horiz-adv-x="909" 
d="M690 712l55 -40l-497 -684l-55 40zM80 491q78 102 154 209h70v-213h52v-57h-52v-89h-68v89h-156v61zM236 487v122q-79 -116 -83 -122h83zM829 314q-82 -169 -149 -331l-63 29q49 113 136 287h-165v59h241v-44z" />
    <glyph glyph-name="fivesevenths" horiz-adv-x="850" 
d="M631 712l55 -40l-497 -684l-55 40zM310 642h-130q0 -4 -6 -83q18 9 46 9q45 0 76 -32.5t31 -77.5q0 -53 -36 -88t-90 -35q-85 0 -121 68l58 29q17 -39 60 -39q27 0 42.5 17.5t15.5 43.5q0 25 -16.5 41t-41.5 16q-31 0 -50 -23l-45 31q8 83 12 181h195v-58zM770 314
q-82 -169 -149 -331l-63 29q49 113 136 287h-165v59h241v-44z" />
    <glyph glyph-name="sixsevenths" horiz-adv-x="867" 
d="M648 712l55 -40l-497 -684l-55 40zM268 722l25 -55q-105 -45 -132 -119q29 24 67 24q49 0 81 -33t32 -81q0 -53 -34.5 -88.5t-88.5 -35.5q-63 0 -100.5 43t-37.5 104q0 83 53 145.5t135 95.5zM150 480q0 -38 15.5 -63.5t48.5 -25.5q26 0 41.5 18t15.5 45q0 28 -16 44.5
t-42 16.5q-42 0 -63 -35zM787 314q-82 -169 -149 -331l-63 29q49 113 136 287h-165v59h241v-44z" />
    <glyph glyph-name="oneninth" horiz-adv-x="803" 
d="M577 712l55 -40l-497 -684l-55 40zM224 338h-69v283q-26 -12 -53 -23v62q2 1 32 16.5t45 23.5h45v-362zM535 -23l-25 55q105 45 132 119q-29 -24 -67 -24q-49 0 -81 33t-32 81q0 53 34.5 88.5t88.5 35.5q63 0 100.5 -43t37.5 -104q0 -83 -53 -145.5t-135 -95.5zM653 219
q0 38 -15.5 63.5t-48.5 25.5q-26 0 -41.5 -18t-15.5 -45q0 -28 16 -44.5t42 -16.5q42 0 63 35z" />
    <glyph glyph-name="twoninths" horiz-adv-x="891" 
d="M665 712l55 -40l-497 -684l-55 40zM88 394q72 74 125 147q28 38 28 67q0 18 -13 29t-33 11t-33 -14t-13 -38l-69 12q3 44 37.5 71.5t80.5 27.5t80.5 -27.5t34.5 -71.5q0 -43 -39 -99q-32 -46 -93 -110h147v-58h-240v53zM623 -23l-25 55q105 45 132 119q-29 -24 -67 -24
q-49 0 -81 33t-32 81q0 53 34.5 88.5t88.5 35.5q63 0 100.5 -43t37.5 -104q0 -83 -53 -145.5t-135 -95.5zM741 219q0 38 -15.5 63.5t-48.5 25.5q-26 0 -41.5 -18t-15.5 -45q0 -28 16 -44.5t42 -16.5q42 0 63 35z" />
    <glyph glyph-name="fourninths" horiz-adv-x="916" 
d="M690 712l55 -40l-497 -684l-55 40zM80 491q78 102 154 209h70v-213h52v-57h-52v-89h-68v89h-156v61zM236 487v122q-79 -116 -83 -122h83zM648 -23l-25 55q105 45 132 119q-29 -24 -67 -24q-49 0 -81 33t-32 81q0 53 34.5 88.5t88.5 35.5q63 0 100.5 -43t37.5 -104
q0 -83 -53 -145.5t-135 -95.5zM766 219q0 38 -15.5 63.5t-48.5 25.5q-26 0 -41.5 -18t-15.5 -45q0 -28 16 -44.5t42 -16.5q42 0 63 35z" />
    <glyph glyph-name="fiveninths" horiz-adv-x="857" 
d="M631 712l55 -40l-497 -684l-55 40zM310 642h-130q0 -4 -6 -83q18 9 46 9q45 0 76 -32.5t31 -77.5q0 -53 -36 -88t-90 -35q-85 0 -121 68l58 29q17 -39 60 -39q27 0 42.5 17.5t15.5 43.5q0 25 -16.5 41t-41.5 16q-31 0 -50 -23l-45 31q8 83 12 181h195v-58zM589 -23
l-25 55q105 45 132 119q-29 -24 -67 -24q-49 0 -81 33t-32 81q0 53 34.5 88.5t88.5 35.5q63 0 100.5 -43t37.5 -104q0 -83 -53 -145.5t-135 -95.5zM707 219q0 38 -15.5 63.5t-48.5 25.5q-26 0 -41.5 -18t-15.5 -45q0 -28 16 -44.5t42 -16.5q42 0 63 35z" />
    <glyph glyph-name="sevenninths" horiz-adv-x="803" 
d="M577 712l55 -40l-497 -684l-55 40zM332 656q-82 -169 -149 -331l-63 29q49 113 136 287h-165v59h241v-44zM535 -23l-25 55q105 45 132 119q-29 -24 -67 -24q-49 0 -81 33t-32 81q0 53 34.5 88.5t88.5 35.5q63 0 100.5 -43t37.5 -104q0 -83 -53 -145.5t-135 -95.5z
M653 219q0 38 -15.5 63.5t-48.5 25.5q-26 0 -41.5 -18t-15.5 -45q0 -28 16 -44.5t42 -16.5q42 0 63 35z" />
    <glyph glyph-name="eightninths" horiz-adv-x="879" 
d="M653 712l55 -40l-497 -684l-55 40zM280 530q54 -29 54 -89q0 -45 -36 -75.5t-91 -30.5q-56 0 -91.5 30.5t-35.5 75.5q0 58 54 89q-45 28 -45 77q0 42 33 71t85 29t85 -29t33 -71q0 -49 -45 -77zM158 603q0 -20 14 -33.5t35 -13.5q20 0 34.5 14t14.5 33q0 20 -14.5 33.5
t-34.5 13.5q-21 0 -35 -13.5t-14 -33.5zM150 445q0 -23 16 -38t41 -15t41 15t16 38t-16 38.5t-41 15.5t-41 -15.5t-16 -38.5zM611 -23l-25 55q105 45 132 119q-29 -24 -67 -24q-49 0 -81 33t-32 81q0 53 34.5 88.5t88.5 35.5q63 0 100.5 -43t37.5 -104q0 -83 -53 -145.5
t-135 -95.5zM729 219q0 38 -15.5 63.5t-48.5 25.5q-26 0 -41.5 -18t-15.5 -45q0 -28 16 -44.5t42 -16.5q42 0 63 35z" />
    <glyph glyph-name="commaaccent" horiz-adv-x="360" 
d="M172 -231h-75l36 175h85z" />
    <glyph glyph-name="revcommaaccent" horiz-adv-x="360" 
d="M187 746h79l-37 -179h-89z" />
    <glyph glyph-name="tilde.cap" horiz-adv-x="360" 
d="M285 866l65 7q2 -12 2 -27q0 -43 -27.5 -69t-70.5 -26q-30 0 -57.5 16t-50 32t-40.5 16q-31 0 -33 -30q0 -7 1 -10l-65 -7q-2 12 -2 27q0 43 27.5 69t70.5 26q37 0 83 -32t65 -32q31 0 33 30q0 7 -1 10z" />
    <glyph glyph-name="ring.cap" horiz-adv-x="360" 
d="M87 819q0 38 27.5 65.5t65.5 27.5t65.5 -27.5t27.5 -65.5t-27.5 -65.5t-65.5 -27.5t-65.5 27.5t-27.5 65.5zM136 819q0 -18 13 -31t31 -13t31 13t13 31t-13 31t-31 13t-31 -13t-13 -31z" />
    <glyph glyph-name="circumflex.cap" horiz-adv-x="360" 
d="M132 922h95l107 -134l-54 -42l-102 116l-101 -116l-55 42z" />
    <glyph glyph-name="acute.cap" horiz-adv-x="360" 
d="M319 866l-175 -126l-42 54l165 138z" />
    <glyph glyph-name="grave.cap" horiz-adv-x="360" 
d="M216 740l-175 126l52 66l165 -138z" />
    <glyph glyph-name="dieresis.cap" horiz-adv-x="360" 
d="M96 764h-102v111h102v-111zM366 764h-102v111h102v-111z" />
    <glyph glyph-name="caron.cap" horiz-adv-x="360" 
d="M224 752h-95l-107 134l55 42l102 -116l101 116l54 -42z" />
    <glyph glyph-name="macron.cap" horiz-adv-x="360" 
d="M345 774h-330v71h330v-71z" />
    <glyph glyph-name="dotaccent.cap" horiz-adv-x="360" 
d="M231 764h-102v111h102v-111z" />
    <glyph glyph-name="cedilla.cap" horiz-adv-x="360" 
d="M197 0l-28 -65l2 -1q18 16 48 16q39 0 63 -27t24 -66q0 -41 -31.5 -71.5t-77.5 -30.5q-70 0 -103 59l57 28q12 -32 46 -32q19 0 31 13t12 31q0 19 -11.5 33t-31.5 14q-28 0 -41 -24l-62 33l47 100z" />
    <glyph glyph-name="hungarumlaut.cap" horiz-adv-x="360" 
d="M227 866l-175 -126l-42 54l165 138zM437 861l-168 -121l-42 54l158 133z" />
    <glyph glyph-name="commaaccent.cap" horiz-adv-x="360" 
d="M172 -231h-75l36 175h85z" />
    <glyph glyph-name="breve.cap" horiz-adv-x="360" 
d="M259 894h64v-6q0 -59 -41 -95.5t-102 -36.5q-65 0 -104 36t-39 96v6h67v-6q0 -32 21 -50t55 -18q33 0 56 18t23 50v6z" />
    <glyph glyph-name="caron.alt" horiz-adv-x="360" 
d="M166 500h-76l40 200h89z" />
    <glyph glyph-name="ogonek.cap" horiz-adv-x="360" 
d="M161 12l69 -7l4 -5q-51 -16 -77 -46t-26 -64q0 -44 42 -44q22 0 44 14l32 -51q-34 -31 -89 -31q-45 0 -78 26.5t-33 72.5q0 92 112 135z" />
    <glyph glyph-name="square" horiz-adv-x="388" 
d="M60 155v268h268v-268h-268z" />
    <glyph glyph-name="square.open" horiz-adv-x="388" 
d="M60 155v268h268v-268h-268zM138 345v-112h112v112h-112z" />
    <glyph glyph-name="circle.open" horiz-adv-x="366" 
d="M35 289q0 61 43.5 104.5t104.5 43.5t104.5 -43.5t43.5 -104.5t-43.5 -104.5t-104.5 -43.5t-104.5 43.5t-43.5 104.5zM121 289q0 -25 18.5 -43.5t43.5 -18.5t43.5 18.5t18.5 43.5t-18.5 43.5t-43.5 18.5t-43.5 -18.5t-18.5 -43.5z" />
    <glyph glyph-name="doublecircle" horiz-adv-x="366" 
d="M39 283q0 59 42.5 101.5t101.5 42.5t101.5 -42.5t42.5 -101.5t-42.5 -101.5t-101.5 -42.5t-101.5 42.5t-42.5 101.5zM128 283q0 23 16 39t39 16t39 -16t16 -39t-16 -39t-39 -16t-39 16t-16 39zM75 283q0 -44 32 -76t76 -32t76 32t32 76t-32 76t-76 32t-76 -32t-32 -76z
" />
    <glyph glyph-name="triangle.left" horiz-adv-x="398" 
d="M338 111l-308 175l308 173v-348z" />
    <glyph glyph-name="raute" horiz-adv-x="356" 
d="M178 512l148 -236l-148 -236l-148 236z" />
    <glyph glyph-name="triangleWhiteLeft" horiz-adv-x="490" 
d="M430 59l-400 226l400 226v-452zM360 391l-187 -106l187 -105v211z" />
    <glyph glyph-name="triangleWhiteRight" horiz-adv-x="490" 
d="M460 285l-400 -226v452zM317 285l-187 106v-211z" />
    <glyph glyph-name="arrow.right" horiz-adv-x="1000" 
d="M40 315v91h769l-260 255l64 64l367 -364l-367 -364l-64 64l259 254h-768z" />
    <glyph glyph-name="arrow.left" horiz-adv-x="1000" 
d="M960 406v-91h-768l259 -254l-64 -64l-367 364l367 364l64 -64l-260 -255h769z" />
    <glyph glyph-name="arrow.up" horiz-adv-x="900" 
d="M495 -99h-91v768l-254 -259l-64 64l364 367l364 -367l-64 -64l-255 260v-769z" />
    <glyph glyph-name="arrow.down" horiz-adv-x="900" 
d="M404 821h91v-769l255 260l64 -64l-364 -367l-364 367l64 64l254 -259v768z" />
    <glyph glyph-name="arrow.leftup" horiz-adv-x="1000" 
d="M158 693l517 -2v-90l-365 3l544 -544l-64 -64l-543 543l3 -363h-90z" />
    <glyph glyph-name="arrow.rightup" horiz-adv-x="1000" 
d="M337 691l517 2l-2 -517h-90l3 363l-543 -543l-64 64l544 544l-365 -3v90z" />
    <glyph glyph-name="arrowleft.down" horiz-adv-x="1000" 
d="M790 697l64 -64l-544 -544l365 3v-90l-517 -2l2 517h90l-3 -363z" />
    <glyph glyph-name="arrowright.down" horiz-adv-x="1000" 
d="M158 633l64 64l543 -543l-3 363h90l2 -517l-517 2v90l365 -3z" />
    <glyph glyph-name="arrowright.alt" horiz-adv-x="469" 
d="M389 285l-257 -191l-52 74l170 117l-170 117l52 74z" />
    <glyph glyph-name="arrowleft.alt" horiz-adv-x="469" 
d="M337 94l-257 191l257 191l52 -74l-170 -117l170 -117z" />
    <glyph glyph-name="arrowup.alt" horiz-adv-x="542" 
d="M271 476l191 -257l-74 -52l-117 170l-117 -170l-74 52z" />
    <glyph glyph-name="arrowdown.alt" horiz-adv-x="542" 
d="M462 351l-191 -257l-191 257l74 52l117 -170l117 170z" />
    <glyph glyph-name="arrowleftup.alt" horiz-adv-x="477" 
d="M80 431l317 -47l-16 -89l-203 37l38 -202l-90 -16z" />
    <glyph glyph-name="arrowrightup.alt" horiz-adv-x="477" 
d="M80 384l317 47l-46 -317l-90 16l38 202l-203 -37z" />
    <glyph glyph-name="arrowleftdown.alt" horiz-adv-x="477" 
d="M397 161l-317 -47l46 317l90 -16l-38 -202l203 37z" />
    <glyph glyph-name="arrowrightdown.alt" horiz-adv-x="477" 
d="M397 114l-317 47l16 89l203 -37l-38 202l90 16z" />
    <glyph glyph-name="arrowlong.left" horiz-adv-x="1200" 
d="M414 504l-208 -204h924v-72h-924l208 -204l-51 -52l-293 292l293 291z" />
    <glyph glyph-name="arrowlong.right" horiz-adv-x="1200" 
d="M837 -28l-51 52l207 204h-923v72h923l-207 204l51 51l293 -291z" />
    <glyph glyph-name="arrowlong.up" horiz-adv-x="723" 
d="M601 497l-204 207v-923h-72v923l-204 -207l-51 51l291 293l292 -293z" />
    <glyph glyph-name="arrowlong.down" horiz-adv-x="723" 
d="M121 107l204 -207v923h72v-923l204 207l52 -51l-292 -293l-291 293z" />
    <glyph glyph-name="arrowlong.leftup" horiz-adv-x="915" 
d="M483 612l-291 2l653 -653l-51 -51l-653 653l3 -291h-72l-2 413h414z" />
    <glyph glyph-name="arrowlong.leftdown" horiz-adv-x="915" 
d="M144 323l-3 -292l653 654l51 -51l-653 -653l291 2l1 -73h-414l2 413h72z" />
    <glyph glyph-name="arrowlong.rightup" horiz-adv-x="915" 
d="M771 272l2 291l-652 -653l-51 51l652 653l-290 -2l-1 73h414l-2 -413h-72z" />
    <glyph glyph-name="arrowlong.rightdown" horiz-adv-x="915" 
d="M431 -90l1 73l290 -2l-652 653l51 51l652 -654l-2 292h72l2 -413h-414z" />
    <glyph glyph-name="ornm1" horiz-adv-x="666" 
d="M240 390q0 -19 15 -34h-201q-14 0 -24 10t-10 24t10 24t24 10h200q-14 -14 -14 -34zM332 154q0 -14 -9 -23t-23 -9h-81q-13 0 -22.5 9t-9.5 23t9.5 23t22.5 9h81q14 0 23 -9t9 -23zM332 232q0 -14 -9 -23t-23 -9h-81q-13 0 -22.5 9t-9.5 23t9.5 23t22.5 9h81q14 0 23 -9
t9 -23zM332 310q0 -14 -9 -23t-23 -9h-81q-13 0 -22.5 9t-9.5 23t9.5 23t22.5 9h81q14 0 23 -9t9 -23zM429 122h-96q13 13 13 32q0 25 -22 39q22 14 22 39t-22 39q22 14 22 39q0 19 -14 33h63v13h-107q-14 0 -24 10t-10 24t10 24t24 10h149q20 0 35.5 -30t39.5 -30h114v-197
h-114q-23 0 -40.5 -22.5t-42.5 -22.5z" />
    <glyph glyph-name="ornm2" horiz-adv-x="666" 
d="M426 390q0 20 -14 34h200q14 0 24 -10t10 -24t-10 -24t-24 -10h-201q15 15 15 34zM333 122h-96q-25 0 -42.5 22.5t-40.5 22.5h-114v197h114q24 0 39.5 30t35.5 30h149q14 0 24 -10t10 -24t-10 -24t-24 -10h-107v-13h63q-14 -14 -14 -33q0 -25 22 -39q-22 -14 -22 -39
t22 -39q-22 -14 -22 -39q0 -19 13 -32zM334 154q0 14 9 23t23 9h81q13 0 22.5 -9t9.5 -23t-9.5 -23t-22.5 -9h-81q-14 0 -23 9t-9 23zM334 232q0 14 9 23t23 9h81q13 0 22.5 -9t9.5 -23t-9.5 -23t-22.5 -9h-81q-14 0 -23 9t-9 23zM334 310q0 14 9 23t23 9h81q13 0 22.5 -9
t9.5 -23t-9.5 -23t-22.5 -9h-81q-14 0 -23 9t-9 23z" />
    <glyph glyph-name="ornm3" horiz-adv-x="1100" 
d="M648 588l-61 12l31 154l61 -12zM519 601h62v-157h-62v157zM452 -78l61 -12l-31 -154l-61 12zM581 -91h-62v157h62v-157zM883 157l12 61l154 -31l-12 -61zM896 286v-62h-157v62h157zM217 353l-12 -61l-154 31l12 61zM204 224v62h157v-62h-157zM855 422l-34 51l130 88
l35 -52zM773 522l44 -44l-111 -111l-44 44zM245 88l34 -51l-130 -88l-35 52zM327 -12l-44 44l111 111l44 -44zM717 -50l51 34l88 -130l-52 -35zM817 32l-44 -44l-111 111l44 44zM383 560l-51 -34l-88 130l52 35zM283 478l44 44l111 -111l-44 -44zM765 527l-51 34l86 132
l52 -34zM651 587l57 -23l-58 -145l-58 23zM335 -17l51 -34l-86 -132l-52 34zM449 -77l-57 23l58 145l58 -23zM822 40l34 51l132 -86l-34 -52zM882 154l-23 -57l-145 58l23 58zM278 470l-34 -51l-132 86l34 52zM218 356l23 57l145 -58l-23 -58zM516 600l-61 -11l-29 155
l60 11zM392 564l57 23l59 -145l-58 -23zM584 -90l61 11l29 -155l-60 -11zM708 -54l-57 -23l-59 145l58 23zM895 289l-11 61l155 29l11 -60zM859 413l23 -57l-145 -59l-23 58zM205 221l11 -61l-155 -29l-11 60zM241 97l-23 57l145 59l23 -58z" />
    <glyph glyph-name="ornm4" horiz-adv-x="1177" 
d="M316 255q0 110 78 188t188 78t188 -78t78 -188t-78 -188t-188 -78t-188 78t-78 188zM372 255q0 -87 61.5 -148.5t148.5 -61.5t148.5 61.5t61.5 148.5t-61.5 148.5t-148.5 61.5t-148.5 -61.5t-61.5 -148.5zM428 255q0 64 45 109t109 45t109 -45t45 -109t-45 -109t-109 -45
t-109 45t-45 109zM484 255q0 -41 29 -69.5t69 -28.5t69 28.5t29 69.5t-29 69.5t-69 28.5t-69 -28.5t-29 -69.5zM722 570q0 17 12.5 29.5t29.5 12.5t29.5 -12.5t12.5 -29.5t-12.5 -29.5t-29.5 -12.5t-29.5 12.5t-12.5 29.5zM729 -71q0 17 12.5 29.5t29.5 12.5t29.5 -12.5
t12.5 -29.5t-12.5 -29.5t-29.5 -12.5t-29.5 12.5t-12.5 29.5zM792 -180q0 17 12.5 29.5t29.5 12.5t29.5 -12.5t12.5 -29.5t-12.5 -29.5t-29.5 -12.5t-29.5 12.5t-12.5 29.5zM866 66q0 17 12.5 29.5t29.5 12.5t29.5 -12.5t12.5 -29.5t-12.5 -29.5t-29.5 -12.5t-29.5 12.5
t-12.5 29.5zM975 3q0 17 12.5 29.5t29.5 12.5t29.5 -12.5t12.5 -29.5t-12.5 -29.5t-29.5 -12.5t-29.5 12.5t-12.5 29.5zM295 679q0 17 12.5 29.5t29.5 12.5t29.5 -12.5t12.5 -29.5t-12.5 -29.5t-29.5 -12.5t-29.5 12.5t-12.5 29.5zM358 570q0 17 12.5 29.5t29.5 12.5
t29.5 -12.5t12.5 -29.5t-12.5 -29.5t-29.5 -12.5t-29.5 12.5t-12.5 29.5zM116 500q0 17 12.5 29.5t29.5 12.5t29.5 -12.5t12.5 -29.5t-12.5 -29.5t-29.5 -12.5t-29.5 12.5t-12.5 29.5zM225 437q0 17 12.5 29.5t29.5 12.5t29.5 -12.5t12.5 -29.5t-12.5 -29.5t-29.5 -12.5
t-29.5 12.5t-12.5 29.5zM917 255q0 17 12.5 29.5t29.5 12.5t29.5 -12.5t12.5 -29.5t-12.5 -29.5t-29.5 -12.5t-29.5 12.5t-12.5 29.5zM1043 255q0 17 12.5 29.5t29.5 12.5t29.5 -12.5t12.5 -29.5t-12.5 -29.5t-29.5 -12.5t-29.5 12.5t-12.5 29.5zM855 437q0 17 12.5 29.5
t29.5 12.5t29.5 -12.5t12.5 -29.5t-12.5 -29.5t-29.5 -12.5t-29.5 12.5t-12.5 29.5zM295 -169q0 17 12.5 29.5t29.5 12.5t29.5 -12.5t12.5 -29.5t-12.5 -29.5t-29.5 -12.5t-29.5 12.5t-12.5 29.5zM50 255q0 17 12.5 29.5t29.5 12.5t29.5 -12.5t12.5 -29.5t-12.5 -29.5
t-29.5 -12.5t-29.5 12.5t-12.5 29.5zM785 679q0 17 12.5 29.5t29.5 12.5t29.5 -12.5t12.5 -29.5t-12.5 -29.5t-29.5 -12.5t-29.5 12.5t-12.5 29.5zM540 619q0 17 12.5 29.5t29.5 12.5t29.5 -12.5t12.5 -29.5t-12.5 -29.5t-29.5 -12.5t-29.5 12.5t-12.5 29.5zM540 745
q0 17 12.5 29.5t29.5 12.5t29.5 -12.5t12.5 -29.5t-12.5 -29.5t-29.5 -12.5t-29.5 12.5t-12.5 29.5zM540 -235q0 17 12.5 29.5t29.5 12.5t29.5 -12.5t12.5 -29.5t-12.5 -29.5t-29.5 -12.5t-29.5 12.5t-12.5 29.5zM540 -109q0 17 12.5 29.5t29.5 12.5t29.5 -12.5t12.5 -29.5
t-12.5 -29.5t-29.5 -12.5t-29.5 12.5t-12.5 29.5zM964 500q0 17 12.5 29.5t29.5 12.5t29.5 -12.5t12.5 -29.5t-12.5 -29.5t-29.5 -12.5t-29.5 12.5t-12.5 29.5zM540 255q0 17 12.5 29.5t29.5 12.5t29.5 -12.5t12.5 -29.5t-12.5 -29.5t-29.5 -12.5t-29.5 12.5t-12.5 29.5z
M116 10q0 17 12.5 29.5t29.5 12.5t29.5 -12.5t12.5 -29.5t-12.5 -29.5t-29.5 -12.5t-29.5 12.5t-12.5 29.5zM225 73q0 17 12.5 29.5t29.5 12.5t29.5 -12.5t12.5 -29.5t-12.5 -29.5t-29.5 -12.5t-29.5 12.5t-12.5 29.5zM358 -60q0 17 12.5 29.5t29.5 12.5t29.5 -12.5
t12.5 -29.5t-12.5 -29.5t-29.5 -12.5t-29.5 12.5t-12.5 29.5zM176 255q0 17 12.5 29.5t29.5 12.5t29.5 -12.5t12.5 -29.5t-12.5 -29.5t-29.5 -12.5t-29.5 12.5t-12.5 29.5z" />
    <glyph glyph-name="ornm5" horiz-adv-x="1058" 
d="M235 505l44 44l85 -85q15 12 37 24l-90 223l58 23l90 -223q13 4 39 8v121h62v-121q22 -3 43 -9l94 221l57 -25l-94 -220q12 -6 34 -22l85 85l44 -44l-85 -85q14 -19 24 -37l223 90l23 -58l-223 -90q4 -13 8 -39h121v-62h-121q-3 -23 -9 -44l221 -93l-25 -57l-220 93
q-9 -17 -22 -33l85 -85l-44 -44l-85 85q-24 -18 -37 -25l90 -222l-58 -23l-90 223q-13 -4 -39 -8v-121h-62v121q-23 3 -44 9l-93 -221l-57 25l93 219q-25 16 -33 23l-85 -85l-44 44l85 85q-15 18 -25 37l-222 -90l-23 58l222 90q-6 24 -7 39h-121v62h121q1 20 8 43l-220 94
l25 57l219 -94q12 21 23 34zM319 255q0 -87 61.5 -148.5t148.5 -61.5t148.5 61.5t61.5 148.5t-61.5 148.5t-148.5 61.5t-148.5 -61.5t-61.5 -148.5zM375 255q0 64 45 109t109 45t109 -45t45 -109t-45 -109t-109 -45t-109 45t-45 109zM431 255q0 -41 28.5 -69.5t69.5 -28.5
t69.5 28.5t28.5 69.5t-28.5 69.5t-69.5 28.5t-69.5 -28.5t-28.5 -69.5zM487 255q0 17 12.5 29.5t29.5 12.5t29.5 -12.5t12.5 -29.5t-12.5 -29.5t-29.5 -12.5t-29.5 12.5t-12.5 29.5z" />
    <glyph glyph-name="ornm6" horiz-adv-x="1108" 
d="M220 -123l-44 44l169 169q-15 18 -25 37l-222 -90l-23 58l222 89q-6 26 -7 40h-240v62h240q1 20 8 43l-220 94l25 57l220 -93q7 15 22 33l-169 169l44 44l169 -169q15 12 37 24l-90 223l58 23l89 -223q14 4 40 8v240h62v-240q22 -3 43 -9l94 221l57 -25l-93 -220
q20 -12 33 -22l169 169l44 -44l-169 -169q13 -17 24 -38l223 91l23 -58l-223 -90q4 -13 8 -39h240v-62h-240q-3 -22 -9 -43l221 -94l-25 -57l-220 92q-14 -22 -22 -32l169 -169l-44 -44l-169 169q-21 -16 -38 -25l91 -222l-58 -23l-90 223q-13 -4 -39 -8v-240h-62v240
q-22 3 -43 9l-94 -221l-57 25l92 220q-14 8 -32 22zM344 255q0 -87 61.5 -148.5t148.5 -61.5t148.5 61.5t61.5 148.5t-61.5 148.5t-148.5 61.5t-148.5 -61.5t-61.5 -148.5zM400 255q0 64 45 109t109 45t109 -45t45 -109t-45 -109t-109 -45t-109 45t-45 109zM456 255
q0 -41 29 -69.5t69 -28.5t69 28.5t29 69.5t-29 69.5t-69 28.5t-69 -28.5t-29 -69.5z" />
    <glyph glyph-name="ornm7" horiz-adv-x="1080" 
d="M50 255q0 99 39 190t104.5 156.5t156.5 104.5t190 39t190 -39t156.5 -104.5t104.5 -156.5t39 -190t-39 -190t-104.5 -156.5t-156.5 -104.5t-190 -39t-190 39t-156.5 104.5t-104.5 156.5t-39 190zM106 255q0 -180 127 -307t307 -127t307 127t127 307t-127 307t-307 127
t-307 -127t-127 -307zM162 255q0 157 110.5 267.5t267.5 110.5t267.5 -110.5t110.5 -267.5t-110.5 -267.5t-267.5 -110.5t-267.5 110.5t-110.5 267.5zM218 255q0 -133 94 -227.5t228 -94.5t228 94.5t94 227.5t-94 227.5t-228 94.5t-228 -94.5t-94 -227.5zM274 255
q0 110 78 188t188 78t188 -78t78 -188t-78 -188t-188 -78t-188 78t-78 188zM330 255q0 -87 61.5 -148.5t148.5 -61.5t148.5 61.5t61.5 148.5t-61.5 148.5t-148.5 61.5t-148.5 -61.5t-61.5 -148.5zM386 255q0 64 45 109t109 45t109 -45t45 -109t-45 -109t-109 -45t-109 45
t-45 109zM442 255q0 -41 29 -69.5t69 -28.5t69 28.5t29 69.5t-29 69.5t-69 28.5t-69 -28.5t-29 -69.5zM498 255q0 17 12.5 29.5t29.5 12.5t29.5 -12.5t12.5 -29.5t-12.5 -29.5t-29.5 -12.5t-29.5 12.5t-12.5 29.5z" />
    <glyph glyph-name="ornm8" horiz-adv-x="1106" 
d="M584 444h-62v314h62v-314zM584 -248h-62v314h62v-314zM742 224v62h314v-62h-314zM50 224v62h314v-62h-314zM709 367l-44 44l222 222l44 -44zM219 -123l-44 44l222 222l44 -44zM665 99l44 44l222 -222l-44 -44zM175 589l44 44l222 -222l-44 -44zM653 419l-58 23l118 291
l57 -23zM393 -223l-57 23l117 291l58 -23zM717 155l23 58l291 -118l-23 -57zM75 415l23 57l291 -117l-23 -58zM740 300l-25 58l289 122l25 -57zM102 30l-25 57l289 123l25 -58zM598 68l58 25l122 -289l-57 -25zM328 706l57 25l123 -289l-58 -25z" />
    <glyph glyph-name="ornm9" horiz-adv-x="600" 
d="M550 500v-500h-500v500h500z" />
    <glyph glyph-name="zero.alt" 
d="M275 676q112 0 173.5 -91.5t61.5 -252.5t-61.5 -252.5t-173.5 -91.5t-173.5 91.5t-61.5 252.5t61.5 252.5t173.5 91.5zM275 590q-67 0 -103 -65t-36 -193t36 -193t103 -65t103 65t36 193t-36 193t-103 65z" />
    <glyph glyph-name="one.alt" horiz-adv-x="344" 
d="M55 594q82 41 133 70h61v-664h-94v550q-13 -7 -100 -44v88z" />
    <glyph glyph-name="two.alt" horiz-adv-x="509" 
d="M480 0h-422v85q166 174 234 274q61 88 61 141q0 42 -33 67t-76 25q-42 0 -73 -29t-32 -74l-93 19q6 73 67 120.5t135 47.5q81 0 141.5 -49.5t60.5 -126.5q0 -82 -71 -183q-74 -104 -195 -233h296v-84z" />
    <glyph glyph-name="three.alt" horiz-adv-x="499" 
d="M159 308l-47 75l191 197h-255v84h388v-75l-178 -180q83 -5 137 -65.5t54 -143.5q0 -89 -66 -150.5t-162 -61.5q-61 0 -111.5 29.5t-79.5 80.5l75 42q40 -68 117 -68q54 0 92.5 37.5t38.5 90.5q0 52 -38.5 90t-91.5 38q-37 0 -64 -20z" />
    <glyph glyph-name="four.alt" horiz-adv-x="538" 
d="M329 664h90v-405h99v-84h-99v-175h-92v175h-292v101q200 259 294 388zM135 259h192v262q-127 -179 -192 -262z" />
    <glyph glyph-name="five.alt" horiz-adv-x="499" 
d="M180 580q-5 -108 -14 -186q39 18 91 18q82 0 139.5 -58.5t57.5 -147.5q0 -92 -64.5 -155t-163.5 -63q-61 0 -111.5 29.5t-79.5 80.5l75 42q40 -68 117 -68q53 0 92 37.5t39 88.5q0 59 -33 94.5t-95 35.5q-55 0 -96 -41l-69 37q19 186 27 340h329v-84h-241z" />
    <glyph glyph-name="six.alt" horiz-adv-x="518" 
d="M259 320q-56 0 -89.5 -35.5t-33.5 -88.5q0 -51 36.5 -87.5t86.5 -36.5q56 0 89.5 35.5t33.5 88.5q0 51 -36.5 87.5t-86.5 36.5zM233 398q20 6 45 6q79 0 139.5 -60.5t60.5 -145.5q0 -88 -65.5 -149t-155.5 -61q-89 0 -153 61t-64 149q0 54 35 120q19 37 104.5 172.5
t132.5 202.5l76 -47q-97 -144 -155 -248z" />
    <glyph glyph-name="seven.alt" horiz-adv-x="452" 
d="M432 664v-69q-145 -303 -276 -617l-87 39q40 94 87 197t108 230t64 134h-318v86h422z" />
    <glyph glyph-name="eight.alt" horiz-adv-x="562" 
d="M502 187q0 -82 -64.5 -140.5t-156.5 -58.5t-156.5 58.5t-64.5 140.5q0 51 27 94t74 69q-82 49 -82 140q0 76 59 131t143 55t143 -55t59 -131q0 -91 -82 -140q47 -26 74 -69t27 -94zM173 490q0 -43 31.5 -73t76.5 -30t76.5 30t31.5 73q0 42 -31.5 72t-76.5 30t-76.5 -30
t-31.5 -72zM156 187q0 -47 36.5 -81t88.5 -34t88.5 34t36.5 81q0 48 -36.5 82t-88.5 34t-88.5 -34t-36.5 -82z" />
    <glyph glyph-name="nine.alt" horiz-adv-x="518" 
d="M259 344q56 0 89.5 35.5t33.5 88.5q0 51 -36.5 87.5t-86.5 36.5q-56 0 -89.5 -35.5t-33.5 -88.5q0 -51 36.5 -87.5t86.5 -36.5zM285 266q-19 -6 -45 -6q-79 0 -139.5 60.5t-60.5 145.5q0 88 65.5 149t155.5 61q89 0 153 -61t64 -149q0 -54 -35 -120
q-19 -37 -104.5 -172.5t-132.5 -202.5l-76 47q97 144 155 248z" />
    <glyph glyph-name="zero.lf" 
d="M275 676q112 0 173.5 -91.5t61.5 -252.5t-61.5 -252.5t-173.5 -91.5t-173.5 91.5t-61.5 252.5t61.5 252.5t173.5 91.5zM275 590q-67 0 -103 -65t-36 -193t36 -193t103 -65t103 65t36 193t-36 193t-103 65z" />
    <glyph glyph-name="one.lf" horiz-adv-x="344" 
d="M249 0h-94v550q-13 -7 -100 -44v88q82 41 133 70h61v-664z" />
    <glyph glyph-name="two.lf" horiz-adv-x="509" 
d="M480 0h-422v85q166 174 234 274q61 88 61 141q0 42 -33 67t-76 25q-42 0 -73 -29t-32 -74l-93 19q6 73 67 120.5t135 47.5q81 0 141.5 -49.5t60.5 -126.5q0 -82 -71 -183q-74 -104 -195 -233h296v-84z" />
    <glyph glyph-name="three.lf" horiz-adv-x="519" 
d="M154 292v96q63 2 95 10q40 11 64.5 37.5t24.5 61.5q0 41 -31 68t-80 27q-38 0 -67.5 -19t-41.5 -53l-80 33q20 55 71 89t120 34q92 0 148.5 -48.5t56.5 -129.5q0 -45 -22.5 -83t-60.5 -58q52 -18 84.5 -62.5t32.5 -101.5q0 -94 -64 -149.5t-158 -55.5q-66 0 -124 28.5
t-87 82.5l74 41q40 -68 130 -68q56 0 94.5 29t38.5 84q0 50 -41 82t-100 32q-46 0 -77 -7z" />
    <glyph glyph-name="four.lf" horiz-adv-x="538" 
d="M418 0h-92v167h-300v101q104 135 295 396h97v-413h99v-84h-99v-167zM126 251h200v281q-78 -114 -200 -281z" />
    <glyph glyph-name="five.lf" horiz-adv-x="499" 
d="M433 664v-84h-253q-7 -142 -12 -186q41 19 98 19q83 0 143 -59t60 -145q0 -95 -62.5 -158t-158.5 -63q-63 0 -123.5 30.5t-87.5 80.5l75 42q38 -69 124 -69q63 0 100 38.5t37 95.5q0 55 -38 89t-96 34q-62 0 -103 -42l-68 37q11 106 23 340h342z" />
    <glyph glyph-name="six.lf" horiz-adv-x="534" 
d="M367 701l38 -84q-101 -46 -166 -106.5t-90 -151.5q61 61 150 61q86 0 140.5 -62t54.5 -152q0 -93 -60 -155.5t-151 -62.5q-110 0 -176.5 78t-66.5 187q0 152 92.5 271t234.5 177zM279 336q-45 0 -84 -22.5t-60 -61.5q0 -76 34.5 -128t105.5 -52q56 0 89.5 39t33.5 97
q0 57 -32 92.5t-87 35.5z" />
    <glyph glyph-name="seven.lf" horiz-adv-x="452" 
d="M432 664v-69q-145 -303 -276 -617l-87 39q40 94 87 197t108 230t64 134h-318v86h422z" />
    <glyph glyph-name="eight.lf" horiz-adv-x="562" 
d="M281 -12q-99 0 -162 56t-63 139q0 111 103 167q-83 49 -83 144q0 77 57 129.5t148 52.5t148 -52.5t57 -129.5q0 -95 -83 -144q103 -56 103 -167q0 -83 -63 -139t-162 -56zM281 303q-53 0 -91 -34t-38 -82q0 -50 37.5 -82.5t91.5 -32.5t91.5 32.5t37.5 82.5q0 48 -38 82
t-91 34zM281 592q-47 0 -79 -29t-32 -73q0 -43 32.5 -73t78.5 -30t78.5 30t32.5 73q0 44 -32 73t-79 29z" />
    <glyph glyph-name="nine.lf" horiz-adv-x="534" 
d="M167 -37l-38 84q101 46 166 106.5t90 151.5q-61 -61 -150 -61q-86 0 -140.5 62t-54.5 152q0 93 60 155.5t151 62.5q110 0 176.5 -78t66.5 -187q0 -152 -92.5 -271t-234.5 -177zM255 328q45 0 84 22.5t60 61.5q0 76 -34.5 128t-105.5 52q-56 0 -89.5 -39t-33.5 -97
q0 -57 32 -92.5t87 -35.5z" />
    <glyph glyph-name="dollar.lf" 
d="M30 88l65 61q78 -80 171 -80q58 0 100.5 29t42.5 87q0 22 -9.5 40.5t-20.5 29.5t-36 23.5t-39 18t-47 17.5q-35 13 -54.5 21t-48 24.5t-44 34t-27 45.5t-11.5 63q0 72 50 119.5t129 53.5v95h64v-97q85 -9 164 -65l-57 -67q-59 53 -144 53q-46 0 -81 -23.5t-35 -68.5
q0 -17 8.5 -32t18.5 -24.5t32.5 -20.5t36.5 -16.5t44 -15.5q38 -13 58 -21t52 -26t48.5 -36.5t29.5 -48t13 -66.5q0 -86 -54 -139t-139 -65v-97h-64v94q-116 4 -216 100z" />
    <glyph glyph-name="Euro.lf" horiz-adv-x="650" 
d="M10 374v74h90q32 105 117.5 166.5t205.5 61.5q105 0 188 -51l-43 -74q-61 39 -145 39q-81 0 -139 -37t-85 -105h272v-74h-291q-2 -28 -2 -42q0 -27 2 -40h291v-74h-273q27 -68 84.5 -106t140.5 -38q89 0 156 46l50 -70q-91 -62 -206 -62q-121 0 -206.5 61.5t-117.5 168.5
h-89v74h75q-2 26 -2 40t2 42h-75z" />
    <glyph glyph-name="cent.lf" 
d="M440 173l45 -70q-53 -42 -130 -48v-87h-64v89q-94 14 -154.5 84t-60.5 175q0 97 60.5 169t154.5 89v90h64v-87q67 -4 123 -42l-43 -75q-45 34 -102 34q-68 0 -116 -52t-48 -126q0 -79 48.5 -128.5t116.5 -49.5q59 0 106 35z" />
    <glyph glyph-name="sterling.lf" 
d="M486 0h-406v86h57v230h-57v84h57v54q0 97 57 159.5t145 62.5q87 0 147 -37l-39 -78q-35 31 -104 31q-115 0 -115 -165v-27h135v-84h-135v-230h258v-86z" />
    <glyph glyph-name="yen.lf" 
d="M55 256v74h149l-187 334h108l152 -279h2l147 279h106l-190 -334h148v-74h-170v-64h170v-74h-172v-118h-91v118h-172v74h170v64h-170z" />
    <glyph glyph-name="florin.lf" 
d="M393 316h-131l-41 -363q-9 -79 -48 -122t-98 -43q-36 0 -81 12l20 79q26 -7 50 -7q35 0 48 23t19 77l39 344h-80v84h89l13 111q9 79 51.5 122t111.5 43q61 0 128 -32l-36 -76q-34 24 -83 24q-42 0 -59 -24t-23 -76l-11 -92h122v-84z" />
    <glyph glyph-name="afii61352.lf" horiz-adv-x="1129" 
d="M660 0h-85l-384 522v-522h-96v700h84l385 -522v522h96v-700zM924 712q75 0 125 -51.5t50 -126.5t-50 -126.5t-125 -51.5t-125 51.5t-50 126.5t50 126.5t125 51.5zM1025 534q0 48 -28.5 80.5t-72.5 32.5t-72.5 -32.5t-28.5 -80.5t28.5 -80.5t72.5 -32.5t72.5 32.5
t28.5 80.5z" />
    <glyph glyph-name="percent.lf" horiz-adv-x="850" 
d="M218 706q67 0 113 -46.5t46 -113.5q0 -66 -46 -112.5t-113 -46.5t-113.5 46.5t-46.5 112.5q0 67 46.5 113.5t113.5 46.5zM219 635q-37 0 -61.5 -25t-24.5 -63t24.5 -63.5t61.5 -25.5q35 0 59 25.5t24 63.5q0 37 -24 62.5t-59 25.5zM633 313q67 0 113 -46.5t46 -113.5
q0 -66 -46 -112.5t-113 -46.5t-113.5 46.5t-46.5 112.5q0 67 46.5 113.5t113.5 46.5zM634 242q-37 0 -61.5 -25t-24.5 -63t24.5 -63.5t61.5 -25.5q35 0 59 25.5t24 63.5q0 37 -24 62.5t-59 25.5zM648 712l55 -40l-497 -684l-55 40z" />
    <glyph glyph-name="perthousand.lf" horiz-adv-x="1236" 
d="M1019 313q67 0 113 -46.5t46 -113.5q0 -66 -46 -112.5t-113 -46.5t-113.5 46.5t-46.5 112.5q0 67 46.5 113.5t113.5 46.5zM1020 242q-37 0 -61.5 -25t-24.5 -63t24.5 -63.5t61.5 -25.5q35 0 59 25.5t24 63.5q0 37 -24 62.5t-59 25.5zM218 706q67 0 113 -46.5t46 -113.5
q0 -66 -46 -112.5t-113 -46.5t-113.5 46.5t-46.5 112.5q0 67 46.5 113.5t113.5 46.5zM219 635q-37 0 -61.5 -25t-24.5 -63t24.5 -63.5t61.5 -25.5q35 0 59 25.5t24 63.5q0 37 -24 62.5t-59 25.5zM633 313q67 0 113 -46.5t46 -113.5q0 -66 -46 -112.5t-113 -46.5t-113.5 46.5
t-46.5 112.5q0 67 46.5 113.5t113.5 46.5zM634 242q-37 0 -61.5 -25t-24.5 -63t24.5 -63.5t61.5 -25.5q35 0 59 25.5t24 63.5q0 37 -24 62.5t-59 25.5zM648 712l55 -40l-497 -684l-55 40z" />
    <glyph glyph-name="zero.osf" horiz-adv-x="610" 
d="M305 512q108 0 186.5 -77t78.5 -185t-78.5 -185t-186.5 -77t-186.5 77t-78.5 185t78.5 185t186.5 77zM305 428q-72 0 -120.5 -51t-48.5 -127t48.5 -127t120.5 -51t120.5 51t48.5 127t-48.5 127t-120.5 51z" />
    <glyph glyph-name="one.osf" horiz-adv-x="344" 
d="M249 0h-94v398q-13 -7 -100 -44v88q82 41 133 70h61v-512z" />
    <glyph glyph-name="two.osf" horiz-adv-x="509" 
d="M141 338l-91 22q11 68 62 110t124 42q81 0 134 -44t53 -116q0 -90 -112 -179q-43 -35 -135 -89h293v-84h-409v96q17 12 56.5 38.5t58 39.5t44 32t42.5 34q66 58 66 111q0 38 -24.5 57.5t-67.5 19.5q-39 0 -64.5 -24t-29.5 -66z" />
    <glyph glyph-name="three.osf" horiz-adv-x="519" 
d="M154 128v96q63 2 95 10q40 11 64.5 37.5t24.5 61.5q0 41 -31 68t-80 27q-38 0 -67.5 -19t-41.5 -53l-80 33q20 55 71 89t120 34q92 0 148.5 -48.5t56.5 -129.5q0 -45 -22.5 -83t-60.5 -58q52 -18 84.5 -62.5t32.5 -101.5q0 -94 -64 -149.5t-158 -55.5q-66 0 -124 28.5
t-87 82.5l74 41q40 -68 130 -68q56 0 94.5 29t38.5 84q0 50 -41 82t-100 32q-46 0 -77 -7z" />
    <glyph glyph-name="four.osf" horiz-adv-x="548" 
d="M533 0h-94v-160h-92v160h-327v101q182 217 324 399h95v-416h94v-84zM120 84h227v281q-118 -156 -227 -281z" />
    <glyph glyph-name="five.osf" horiz-adv-x="499" 
d="M433 500v-84h-253q-7 -142 -12 -186q41 19 98 19q83 0 143 -59t60 -145q0 -95 -62.5 -158t-158.5 -63q-63 0 -123.5 30.5t-87.5 80.5l75 42q38 -69 124 -69q63 0 100 38.5t37 95.5q0 55 -38 89t-96 34q-62 0 -103 -42l-68 37q11 106 23 340h342z" />
    <glyph glyph-name="six.osf" horiz-adv-x="534" 
d="M367 701l38 -84q-101 -46 -166 -106.5t-90 -151.5q61 61 150 61q86 0 140.5 -62t54.5 -152q0 -93 -60 -155.5t-151 -62.5q-110 0 -176.5 78t-66.5 187q0 152 92.5 271t234.5 177zM279 336q-45 0 -84 -22.5t-60 -61.5q0 -76 34.5 -128t105.5 -52q56 0 89.5 39t33.5 97
q0 57 -32 92.5t-87 35.5z" />
    <glyph glyph-name="seven.osf" horiz-adv-x="452" 
d="M432 500v-69q-145 -303 -276 -617l-87 39q40 94 87 197t108 230t64 134h-318v86h422z" />
    <glyph glyph-name="eight.osf" horiz-adv-x="562" 
d="M281 -12q-99 0 -162 56t-63 139q0 111 103 167q-83 49 -83 144q0 77 57 129.5t148 52.5t148 -52.5t57 -129.5q0 -95 -83 -144q103 -56 103 -167q0 -83 -63 -139t-162 -56zM281 303q-53 0 -91 -34t-38 -82q0 -50 37.5 -82.5t91.5 -32.5t91.5 32.5t37.5 82.5q0 48 -38 82
t-91 34zM281 592q-47 0 -79 -29t-32 -73q0 -43 32.5 -73t78.5 -30t78.5 30t32.5 73q0 44 -32 73t-79 29z" />
    <glyph glyph-name="nine.osf" horiz-adv-x="534" 
d="M167 -201l-38 84q101 46 166 106.5t90 151.5q-61 -61 -150 -61q-86 0 -140.5 62t-54.5 152q0 93 60 155.5t151 62.5q110 0 176.5 -78t66.5 -187q0 -152 -92.5 -271t-234.5 -177zM255 164q45 0 84 22.5t60 61.5q0 76 -34.5 128t-105.5 52q-56 0 -89.5 -39t-33.5 -97
q0 -57 32 -92.5t87 -35.5z" />
    <glyph glyph-name="dollar.osf" 
d="M30 88l65 61q78 -80 171 -80q58 0 100.5 29t42.5 87q0 22 -9.5 40.5t-20.5 29.5t-36 23.5t-39 18t-47 17.5q-35 13 -54.5 21t-48 24.5t-44 34t-27 45.5t-11.5 63q0 72 50 119.5t129 53.5v95h64v-97q85 -9 164 -65l-57 -67q-59 53 -144 53q-46 0 -81 -23.5t-35 -68.5
q0 -17 8.5 -32t18.5 -24.5t32.5 -20.5t36.5 -16.5t44 -15.5q38 -13 58 -21t52 -26t48.5 -36.5t29.5 -48t13 -66.5q0 -86 -54 -139t-139 -65v-97h-64v94q-116 4 -216 100z" />
    <glyph glyph-name="Euro.osf" horiz-adv-x="650" 
d="M10 374v74h90q32 105 117.5 166.5t205.5 61.5q105 0 188 -51l-43 -74q-61 39 -145 39q-81 0 -139 -37t-85 -105h272v-74h-291q-2 -28 -2 -42q0 -27 2 -40h291v-74h-273q27 -68 84.5 -106t140.5 -38q89 0 156 46l50 -70q-91 -62 -206 -62q-121 0 -206.5 61.5t-117.5 168.5
h-89v74h75q-2 26 -2 40t2 42h-75z" />
    <glyph glyph-name="cent.osf" 
d="M440 173l45 -70q-53 -42 -130 -48v-87h-64v89q-94 14 -154.5 84t-60.5 175q0 97 60.5 169t154.5 89v90h64v-87q67 -4 123 -42l-43 -75q-45 34 -102 34q-68 0 -116 -52t-48 -126q0 -79 48.5 -128.5t116.5 -49.5q59 0 106 35z" />
    <glyph glyph-name="sterling.osf" 
d="M486 0h-406v86h57v230h-57v84h57v54q0 97 57 159.5t145 62.5q87 0 147 -37l-39 -78q-35 31 -104 31q-115 0 -115 -165v-27h135v-84h-135v-230h258v-86z" />
    <glyph glyph-name="yen.osf" 
d="M55 256v74h149l-187 334h108l152 -279h2l147 279h106l-190 -334h148v-74h-170v-64h170v-74h-172v-118h-91v118h-172v74h170v64h-170z" />
    <glyph glyph-name="florin.osf" 
d="M393 400v-84h-131l-41 -363q-9 -79 -48 -122t-98 -43q-36 0 -81 12l20 79q26 -7 50 -7q35 0 48 23t19 77l39 344h-80v84h89l13 111q9 79 51.5 122t111.5 43q61 0 128 -32l-36 -76q-34 24 -83 24q-42 0 -59 -24t-23 -76l-11 -92h122z" />
    <glyph glyph-name="afii61352.osf" horiz-adv-x="1129" 
d="M660 0h-85l-384 522v-522h-96v700h84l385 -522v522h96v-700zM924 712q75 0 125 -51.5t50 -126.5t-50 -126.5t-125 -51.5t-125 51.5t-50 126.5t50 126.5t125 51.5zM1025 534q0 48 -28.5 80.5t-72.5 32.5t-72.5 -32.5t-28.5 -80.5t28.5 -80.5t72.5 -32.5t72.5 32.5
t28.5 80.5z" />
    <glyph glyph-name="percent.osf" horiz-adv-x="850" 
d="M218 706q67 0 113 -46.5t46 -113.5q0 -66 -46 -112.5t-113 -46.5t-113.5 46.5t-46.5 112.5q0 67 46.5 113.5t113.5 46.5zM219 635q-37 0 -61.5 -25t-24.5 -63t24.5 -63.5t61.5 -25.5q35 0 59 25.5t24 63.5q0 37 -24 62.5t-59 25.5zM633 313q67 0 113 -46.5t46 -113.5
q0 -66 -46 -112.5t-113 -46.5t-113.5 46.5t-46.5 112.5q0 67 46.5 113.5t113.5 46.5zM634 242q-37 0 -61.5 -25t-24.5 -63t24.5 -63.5t61.5 -25.5q35 0 59 25.5t24 63.5q0 37 -24 62.5t-59 25.5zM648 712l55 -40l-497 -684l-55 40z" />
    <glyph glyph-name="perthousand.osf" horiz-adv-x="1236" 
d="M1019 313q67 0 113 -46.5t46 -113.5q0 -66 -46 -112.5t-113 -46.5t-113.5 46.5t-46.5 112.5q0 67 46.5 113.5t113.5 46.5zM1020 242q-37 0 -61.5 -25t-24.5 -63t24.5 -63.5t61.5 -25.5q35 0 59 25.5t24 63.5q0 37 -24 62.5t-59 25.5zM218 706q67 0 113 -46.5t46 -113.5
q0 -66 -46 -112.5t-113 -46.5t-113.5 46.5t-46.5 112.5q0 67 46.5 113.5t113.5 46.5zM219 635q-37 0 -61.5 -25t-24.5 -63t24.5 -63.5t61.5 -25.5q35 0 59 25.5t24 63.5q0 37 -24 62.5t-59 25.5zM633 313q67 0 113 -46.5t46 -113.5q0 -66 -46 -112.5t-113 -46.5t-113.5 46.5
t-46.5 112.5q0 67 46.5 113.5t113.5 46.5zM634 242q-37 0 -61.5 -25t-24.5 -63t24.5 -63.5t61.5 -25.5q35 0 59 25.5t24 63.5q0 37 -24 62.5t-59 25.5zM648 712l55 -40l-497 -684l-55 40z" />
    <glyph glyph-name="zero.slash" 
d="M275 676q112 0 173.5 -91.5t61.5 -252.5t-61.5 -252.5t-173.5 -91.5t-173.5 91.5t-61.5 252.5t61.5 252.5t173.5 91.5zM275 74q126 0 138 218h-276q5 -108 40.5 -163t97.5 -55zM275 590q-62 0 -97.5 -55t-40.5 -163h276q-12 218 -138 218z" />
    <glyph glyph-name="zero.tf" 
d="M275 676q112 0 173.5 -91.5t61.5 -252.5t-61.5 -252.5t-173.5 -91.5t-173.5 91.5t-61.5 252.5t61.5 252.5t173.5 91.5zM275 590q-67 0 -103 -65t-36 -193t36 -193t103 -65t103 65t36 193t-36 193t-103 65z" />
    <glyph glyph-name="one.tf" 
d="M113 84h154v474q-81 -41 -174 -79v91q96 43 197 94h71v-580h140v-84h-388v84z" />
    <glyph glyph-name="two.tf" 
d="M493 0h-422v85q166 174 234 274q61 88 61 141q0 42 -33 67t-76 25q-42 0 -73 -29t-32 -74l-93 19q6 73 67 120.5t135 47.5q81 0 141.5 -49.5t60.5 -126.5q0 -82 -71 -183q-74 -104 -195 -233h296v-84z" />
    <glyph glyph-name="three.tf" 
d="M169 292v96q63 2 95 10q40 11 64.5 37.5t24.5 61.5q0 41 -31 68t-80 27q-38 0 -67.5 -19t-41.5 -53l-80 33q20 55 71 89t120 34q92 0 148.5 -48.5t56.5 -129.5q0 -45 -22.5 -83t-60.5 -58q52 -18 84.5 -62.5t32.5 -101.5q0 -94 -64 -149.5t-158 -55.5q-66 0 -124 28.5
t-87 82.5l74 41q40 -68 130 -68q56 0 94.5 29t38.5 84q0 50 -41 82t-100 32q-46 0 -77 -7z" />
    <glyph glyph-name="four.tf" 
d="M418 0h-92v167h-300v101q104 135 295 396h97v-413h99v-84h-99v-167zM126 251h200v281q-78 -114 -200 -281z" />
    <glyph glyph-name="five.tf" 
d="M454 664v-84h-253q-7 -142 -12 -186q41 19 98 19q83 0 143 -59t60 -145q0 -95 -62.5 -158t-158.5 -63q-63 0 -123.5 30.5t-87.5 80.5l75 42q38 -69 124 -69q63 0 100 38.5t37 95.5q0 55 -38 89t-96 34q-62 0 -103 -42l-68 37q11 106 23 340h342z" />
    <glyph glyph-name="six.tf" 
d="M375 701l38 -84q-101 -46 -166 -106.5t-90 -151.5q61 61 150 61q86 0 140.5 -62t54.5 -152q0 -93 -60 -155.5t-151 -62.5q-110 0 -176.5 78t-66.5 187q0 152 92.5 271t234.5 177zM287 336q-45 0 -84 -22.5t-60 -61.5q0 -76 34.5 -128t105.5 -52q56 0 89.5 39t33.5 97
q0 57 -32 92.5t-87 35.5z" />
    <glyph glyph-name="seven.tf" 
d="M477 664v-69q-145 -303 -276 -617l-87 39q40 94 87 197t108 230t64 134h-318v86h422z" />
    <glyph glyph-name="eight.tf" 
d="M275 -12q-99 0 -162 56t-63 139q0 111 103 167q-83 49 -83 144q0 77 57 129.5t148 52.5t148 -52.5t57 -129.5q0 -95 -83 -144q103 -56 103 -167q0 -83 -63 -139t-162 -56zM275 303q-53 0 -91 -34t-38 -82q0 -50 37.5 -82.5t91.5 -32.5t91.5 32.5t37.5 82.5q0 48 -38 82
t-91 34zM275 592q-47 0 -79 -29t-32 -73q0 -43 32.5 -73t78.5 -30t78.5 30t32.5 73q0 44 -32 73t-79 29z" />
    <glyph glyph-name="nine.tf" 
d="M175 -37l-38 84q101 46 166 106.5t90 151.5q-61 -61 -150 -61q-86 0 -140.5 62t-54.5 152q0 93 60 155.5t151 62.5q110 0 176.5 -78t66.5 -187q0 -152 -92.5 -271t-234.5 -177zM263 328q45 0 84 22.5t60 61.5q0 76 -34.5 128t-105.5 52q-56 0 -89.5 -39t-33.5 -97
q0 -57 32 -92.5t87 -35.5z" />
    <glyph glyph-name="dollar.tf" 
d="M30 88l65 61q78 -80 171 -80q58 0 100.5 29t42.5 87q0 22 -9.5 40.5t-20.5 29.5t-36 23.5t-39 18t-47 17.5q-35 13 -54.5 21t-48 24.5t-44 34t-27 45.5t-11.5 63q0 72 50 119.5t129 53.5v95h64v-97q85 -9 164 -65l-57 -67q-59 53 -144 53q-46 0 -81 -23.5t-35 -68.5
q0 -17 8.5 -32t18.5 -24.5t32.5 -20.5t36.5 -16.5t44 -15.5q38 -13 58 -21t52 -26t48.5 -36.5t29.5 -48t13 -66.5q0 -86 -54 -139t-139 -65v-97h-64v94q-116 4 -216 100z" />
    <glyph glyph-name="Euro.tf" 
d="M20 374v74h80q21 109 78.5 168.5t146.5 59.5q139 0 199 -138l-87 -31q-36 83 -112 83q-101 0 -129 -142h179v-74h-188q-1 -14 -1 -42t1 -40h188v-74h-180q28 -144 130 -144q89 0 122 113l90 -25q-55 -174 -212 -174q-90 0 -148 60t-78 170h-79v74h71q-1 13 -1 40
q0 28 1 42h-71z" />
    <glyph glyph-name="cent.tf" 
d="M440 173l45 -70q-53 -42 -130 -48v-87h-64v89q-94 14 -154.5 84t-60.5 175q0 97 60.5 169t154.5 89v90h64v-87q67 -4 123 -42l-43 -75q-45 34 -102 34q-68 0 -116 -52t-48 -126q0 -79 48.5 -128.5t116.5 -49.5q59 0 106 35z" />
    <glyph glyph-name="sterling.tf" 
d="M486 0h-406v86h57v230h-57v84h57v54q0 97 57 159.5t145 62.5q87 0 147 -37l-39 -78q-35 31 -104 31q-115 0 -115 -165v-27h135v-84h-135v-230h258v-86z" />
    <glyph glyph-name="yen.tf" 
d="M55 256v74h149l-187 334h108l152 -279h2l147 279h106l-190 -334h148v-74h-170v-64h170v-74h-172v-118h-91v118h-172v74h170v64h-170z" />
    <glyph glyph-name="florin.tf" 
d="M393 400v-84h-131l-41 -363q-9 -79 -48 -122t-98 -43q-36 0 -81 12l20 79q26 -7 50 -7q35 0 48 23t19 77l39 344h-80v84h89l13 111q9 79 51.5 122t111.5 43q61 0 128 -32l-36 -76q-34 24 -83 24q-42 0 -59 -24t-23 -76l-11 -92h122z" />
    <glyph glyph-name="afii61352.tf" horiz-adv-x="1129" 
d="M660 0h-85l-384 522v-522h-96v700h84l385 -522v522h96v-700zM924 712q75 0 125 -51.5t50 -126.5t-50 -126.5t-125 -51.5t-125 51.5t-50 126.5t50 126.5t125 51.5zM1025 534q0 48 -28.5 80.5t-72.5 32.5t-72.5 -32.5t-28.5 -80.5t28.5 -80.5t72.5 -32.5t72.5 32.5
t28.5 80.5z" />
    <glyph glyph-name="percent.tf" horiz-adv-x="850" 
d="M218 706q67 0 113 -46.5t46 -113.5q0 -66 -46 -112.5t-113 -46.5t-113.5 46.5t-46.5 112.5q0 67 46.5 113.5t113.5 46.5zM219 635q-37 0 -61.5 -25t-24.5 -63t24.5 -63.5t61.5 -25.5q35 0 59 25.5t24 63.5q0 37 -24 62.5t-59 25.5zM633 313q67 0 113 -46.5t46 -113.5
q0 -66 -46 -112.5t-113 -46.5t-113.5 46.5t-46.5 112.5q0 67 46.5 113.5t113.5 46.5zM634 242q-37 0 -61.5 -25t-24.5 -63t24.5 -63.5t61.5 -25.5q35 0 59 25.5t24 63.5q0 37 -24 62.5t-59 25.5zM648 712l55 -40l-497 -684l-55 40z" />
    <glyph glyph-name="perthousand.tf" horiz-adv-x="1236" 
d="M1019 313q67 0 113 -46.5t46 -113.5q0 -66 -46 -112.5t-113 -46.5t-113.5 46.5t-46.5 112.5q0 67 46.5 113.5t113.5 46.5zM1020 242q-37 0 -61.5 -25t-24.5 -63t24.5 -63.5t61.5 -25.5q35 0 59 25.5t24 63.5q0 37 -24 62.5t-59 25.5zM218 706q67 0 113 -46.5t46 -113.5
q0 -66 -46 -112.5t-113 -46.5t-113.5 46.5t-46.5 112.5q0 67 46.5 113.5t113.5 46.5zM219 635q-37 0 -61.5 -25t-24.5 -63t24.5 -63.5t61.5 -25.5q35 0 59 25.5t24 63.5q0 37 -24 62.5t-59 25.5zM633 313q67 0 113 -46.5t46 -113.5q0 -66 -46 -112.5t-113 -46.5t-113.5 46.5
t-46.5 112.5q0 67 46.5 113.5t113.5 46.5zM634 242q-37 0 -61.5 -25t-24.5 -63t24.5 -63.5t61.5 -25.5q35 0 59 25.5t24 63.5q0 37 -24 62.5t-59 25.5zM648 712l55 -40l-497 -684l-55 40z" />
    <glyph glyph-name="zeroslash.tosf" 
d="M275 512q106 0 173 -75.5t67 -186.5t-67 -186.5t-173 -75.5t-173 75.5t-67 186.5t67 186.5t173 75.5zM275 72q61 0 97 35.5t44 102.5h-283q8 -67 44 -102.5t98 -35.5zM275 428q-61 0 -97.5 -36t-44.5 -102h283q-8 66 -44 102t-97 36z" />
    <glyph glyph-name="zero.tosf" 
d="M275 512q106 0 173 -75.5t67 -186.5t-67 -186.5t-173 -75.5t-173 75.5t-67 186.5t67 186.5t173 75.5zM275 428q-70 0 -107 -46.5t-37 -131.5t37 -131.5t107 -46.5t107 46.5t37 131.5t-37 131.5t-107 46.5z" />
    <glyph glyph-name="one.tosf" 
d="M113 84h154v322q-81 -41 -174 -79v91q96 43 197 94h71v-428h140v-84h-388v84z" />
    <glyph glyph-name="two.tosf" 
d="M164 338l-91 22q11 68 62 110t124 42q82 0 135 -44t53 -116q0 -89 -94 -167q-48 -40 -144 -101h283v-84h-409v97q166 114 200 144q67 59 67 110q0 38 -24.5 57.5t-67.5 19.5q-39 0 -64.5 -24t-29.5 -66z" />
    <glyph glyph-name="three.tosf" 
d="M169 128v96q63 2 95 10q40 11 64.5 37.5t24.5 61.5q0 41 -31 68t-80 27q-38 0 -67.5 -19t-41.5 -53l-80 33q20 55 71 89t120 34q92 0 148.5 -48.5t56.5 -129.5q0 -45 -22.5 -83t-60.5 -58q52 -18 84.5 -62.5t32.5 -101.5q0 -94 -64 -149.5t-158 -55.5q-66 0 -124 28.5
t-87 82.5l74 41q40 -68 130 -68q56 0 94.5 29t38.5 84q0 50 -41 82t-100 32q-46 0 -77 -7z" />
    <glyph glyph-name="four.tosf" 
d="M530 0h-94v-160h-92v160h-327v101q182 217 324 399h95v-416h94v-84zM117 84h227v281q-118 -156 -227 -281z" />
    <glyph glyph-name="five.tosf" 
d="M454 500v-84h-253q-7 -142 -12 -186q41 19 98 19q83 0 143 -59t60 -145q0 -95 -62.5 -158t-158.5 -63q-63 0 -123.5 30.5t-87.5 80.5l75 42q38 -69 124 -69q63 0 100 38.5t37 95.5q0 55 -38 89t-96 34q-62 0 -103 -42l-68 37q11 106 23 340h342z" />
    <glyph glyph-name="six.tosf" 
d="M375 701l38 -84q-101 -46 -166 -106.5t-90 -151.5q61 61 150 61q86 0 140.5 -62t54.5 -152q0 -93 -60 -155.5t-151 -62.5q-110 0 -176.5 78t-66.5 187q0 152 92.5 271t234.5 177zM287 336q-45 0 -84 -22.5t-60 -61.5q0 -76 34.5 -128t105.5 -52q56 0 89.5 39t33.5 97
q0 57 -32 92.5t-87 35.5z" />
    <glyph glyph-name="seven.tosf" 
d="M477 500v-69q-145 -303 -276 -617l-87 39q40 94 87 197t108 230t64 134h-318v86h422z" />
    <glyph glyph-name="eight.tosf" 
d="M275 -12q-99 0 -162 56t-63 139q0 111 103 167q-83 49 -83 144q0 77 57 129.5t148 52.5t148 -52.5t57 -129.5q0 -95 -83 -144q103 -56 103 -167q0 -83 -63 -139t-162 -56zM275 303q-53 0 -91 -34t-38 -82q0 -50 37.5 -82.5t91.5 -32.5t91.5 32.5t37.5 82.5q0 48 -38 82
t-91 34zM275 592q-47 0 -79 -29t-32 -73q0 -43 32.5 -73t78.5 -30t78.5 30t32.5 73q0 44 -32 73t-79 29z" />
    <glyph glyph-name="nine.tosf" 
d="M175 -201l-38 84q101 46 166 106.5t90 151.5q-61 -61 -150 -61q-86 0 -140.5 62t-54.5 152q0 93 60 155.5t151 62.5q110 0 176.5 -78t66.5 -187q0 -152 -92.5 -271t-234.5 -177zM263 164q45 0 84 22.5t60 61.5q0 76 -34.5 128t-105.5 52q-56 0 -89.5 -39t-33.5 -97
q0 -57 32 -92.5t87 -35.5z" />
    <glyph glyph-name="dollar.tosf" 
d="M30 88l65 61q78 -80 171 -80q58 0 100.5 29t42.5 87q0 22 -9.5 40.5t-20.5 29.5t-36 23.5t-39 18t-47 17.5q-35 13 -54.5 21t-48 24.5t-44 34t-27 45.5t-11.5 63q0 72 50 119.5t129 53.5v95h64v-97q85 -9 164 -65l-57 -67q-59 53 -144 53q-46 0 -81 -23.5t-35 -68.5
q0 -17 8.5 -32t18.5 -24.5t32.5 -20.5t36.5 -16.5t44 -15.5q38 -13 58 -21t52 -26t48.5 -36.5t29.5 -48t13 -66.5q0 -86 -54 -139t-139 -65v-97h-64v94q-116 4 -216 100z" />
    <glyph glyph-name="Euro.tosf" 
d="M20 374v74h80q21 109 78.5 168.5t146.5 59.5q139 0 199 -138l-87 -31q-36 83 -112 83q-101 0 -129 -142h179v-74h-188q-1 -14 -1 -42t1 -40h188v-74h-180q28 -144 130 -144q89 0 122 113l90 -25q-55 -174 -212 -174q-90 0 -148 60t-78 170h-79v74h71q-1 13 -1 40
q0 28 1 42h-71z" />
    <glyph glyph-name="cent.tosf" 
d="M440 173l45 -70q-53 -42 -130 -48v-87h-64v89q-94 14 -154.5 84t-60.5 175q0 97 60.5 169t154.5 89v90h64v-87q67 -4 123 -42l-43 -75q-45 34 -102 34q-68 0 -116 -52t-48 -126q0 -79 48.5 -128.5t116.5 -49.5q59 0 106 35z" />
    <glyph glyph-name="sterling.tosf" 
d="M486 0h-406v86h57v230h-57v84h57v54q0 97 57 159.5t145 62.5q87 0 147 -37l-39 -78q-35 31 -104 31q-115 0 -115 -165v-27h135v-84h-135v-230h258v-86z" />
    <glyph glyph-name="yen.tosf" 
d="M55 256v74h149l-187 334h108l152 -279h2l147 279h106l-190 -334h148v-74h-170v-64h170v-74h-172v-118h-91v118h-172v74h170v64h-170z" />
    <glyph glyph-name="florin.tosf" 
d="M393 400v-84h-131l-41 -363q-9 -79 -48 -122t-98 -43q-36 0 -81 12l20 79q26 -7 50 -7q35 0 48 23t19 77l39 344h-80v84h89l13 111q9 79 51.5 122t111.5 43q61 0 128 -32l-36 -76q-34 24 -83 24q-42 0 -59 -24t-23 -76l-11 -92h122z" />
    <glyph glyph-name="afii61352.tosf" horiz-adv-x="1129" 
d="M660 0h-85l-384 522v-522h-96v700h84l385 -522v522h96v-700zM924 712q75 0 125 -51.5t50 -126.5t-50 -126.5t-125 -51.5t-125 51.5t-50 126.5t50 126.5t125 51.5zM1025 534q0 48 -28.5 80.5t-72.5 32.5t-72.5 -32.5t-28.5 -80.5t28.5 -80.5t72.5 -32.5t72.5 32.5
t28.5 80.5z" />
    <glyph glyph-name="percent.tosf" horiz-adv-x="850" 
d="M218 706q67 0 113 -46.5t46 -113.5q0 -66 -46 -112.5t-113 -46.5t-113.5 46.5t-46.5 112.5q0 67 46.5 113.5t113.5 46.5zM219 635q-37 0 -61.5 -25t-24.5 -63t24.5 -63.5t61.5 -25.5q35 0 59 25.5t24 63.5q0 37 -24 62.5t-59 25.5zM633 313q67 0 113 -46.5t46 -113.5
q0 -66 -46 -112.5t-113 -46.5t-113.5 46.5t-46.5 112.5q0 67 46.5 113.5t113.5 46.5zM634 242q-37 0 -61.5 -25t-24.5 -63t24.5 -63.5t61.5 -25.5q35 0 59 25.5t24 63.5q0 37 -24 62.5t-59 25.5zM648 712l55 -40l-497 -684l-55 40z" />
    <glyph glyph-name="perthousand.tosf" horiz-adv-x="1236" 
d="M1019 313q67 0 113 -46.5t46 -113.5q0 -66 -46 -112.5t-113 -46.5t-113.5 46.5t-46.5 112.5q0 67 46.5 113.5t113.5 46.5zM1020 242q-37 0 -61.5 -25t-24.5 -63t24.5 -63.5t61.5 -25.5q35 0 59 25.5t24 63.5q0 37 -24 62.5t-59 25.5zM218 706q67 0 113 -46.5t46 -113.5
q0 -66 -46 -112.5t-113 -46.5t-113.5 46.5t-46.5 112.5q0 67 46.5 113.5t113.5 46.5zM219 635q-37 0 -61.5 -25t-24.5 -63t24.5 -63.5t61.5 -25.5q35 0 59 25.5t24 63.5q0 37 -24 62.5t-59 25.5zM633 313q67 0 113 -46.5t46 -113.5q0 -66 -46 -112.5t-113 -46.5t-113.5 46.5
t-46.5 112.5q0 67 46.5 113.5t113.5 46.5zM634 242q-37 0 -61.5 -25t-24.5 -63t24.5 -63.5t61.5 -25.5q35 0 59 25.5t24 63.5q0 37 -24 62.5t-59 25.5zM648 712l55 -40l-497 -684l-55 40z" />
    <glyph glyph-name="a.smcp" horiz-adv-x="553" 
d="M10 0l221 570h94l218 -570h-103l-44 119h-245l-43 -119h-98zM273 451l-92 -251h186l-92 251h-2z" />
    <glyph glyph-name="b.smcp" horiz-adv-x="541" 
d="M90 0v570h145q85 0 141 -24q86 -39 86 -130q0 -87 -92 -120q116 -33 116 -134q0 -49 -25.5 -85t-72.5 -54q-60 -23 -161 -23h-137zM390 167q0 40 -31.5 62t-86.5 22h-91v-172h44q84 0 119 16q46 20 46 72zM371 411q0 43 -34 61.5t-105 18.5h-51v-161h54q136 0 136 81z
" />
    <glyph glyph-name="c.smcp" horiz-adv-x="557" 
d="M486 107l46 -66q-76 -53 -169 -53q-131 0 -219.5 82t-88.5 215q0 127 90 212t220 85q83 0 154 -44l-42 -69q-54 32 -113 32q-92 0 -152.5 -61t-60.5 -155q0 -99 58.5 -157.5t153.5 -58.5q65 0 123 38z" />
    <glyph glyph-name="d.smcp" horiz-adv-x="619" 
d="M574 288q0 -110 -53.5 -178.5t-139.5 -90.5q-74 -19 -207 -19h-84v570h80q169 0 235 -27q169 -66 169 -255zM478 281q0 129 -97 178q-60 30 -200 30v-408q96 0 151 13q146 34 146 187z" />
    <glyph glyph-name="e.smcp" horiz-adv-x="515" 
d="M440 0h-350v570h350v-81h-259v-156h259v-81h-259v-171h259v-81z" />
    <glyph glyph-name="f.smcp" horiz-adv-x="445" 
d="M390 239h-209v-239h-91v570h300v-81h-209v-169h209v-81z" />
    <glyph glyph-name="g.smcp" horiz-adv-x="649" 
d="M589 325v-226q-41 -53 -103 -82t-133 -29q-131 0 -219.5 82t-88.5 215q0 126 90 211.5t218 85.5q131 0 223 -102l-66 -56q-61 77 -158 77q-91 0 -151 -61.5t-60 -154.5q0 -99 58 -157.5t153 -58.5q90 0 148 60v117h-135v79h224z" />
    <glyph glyph-name="h.smcp" horiz-adv-x="664" 
d="M574 0h-91v254h-302v-254h-91v570h91v-235h302v235h91v-570z" />
    <glyph glyph-name="i.smcp" horiz-adv-x="271" 
d="M181 0h-91v570h91v-570z" />
    <glyph glyph-name="j.smcp" horiz-adv-x="333" 
d="M14 6l23 73q21 -10 46 -10q41 0 55 18q14 17 14 77v406h91v-428q0 -68 -28 -106q-36 -48 -120 -48q-40 0 -81 18z" />
    <glyph glyph-name="k.smcp" horiz-adv-x="552" 
d="M181 0h-91v570h91v-282l234 282h110l-190 -222l207 -348h-108l-160 276l-93 -109v-167z" />
    <glyph glyph-name="l.smcp" horiz-adv-x="439" 
d="M429 0h-339v570h91v-489h248v-81z" />
    <glyph glyph-name="m.smcp" horiz-adv-x="803" 
d="M713 570v-570h-91v459l-186 -459h-71l-184 458v-458h-91v570h137l172 -444h1l176 444h137z" />
    <glyph glyph-name="msmcp.salt" horiz-adv-x="742" 
d="M337 121l-157 335v-456h-90v570h124l157 -331h1l157 331h123v-570h-89v456l-159 -335h-67z" />
    <glyph glyph-name="n.smcp" horiz-adv-x="676" 
d="M491 0l-310 423v-423h-91v570h94l311 -423v423h91v-570h-95z" />
    <glyph glyph-name="o.smcp" horiz-adv-x="694" 
d="M649 285q0 -124 -87 -210.5t-215 -86.5t-215 86.5t-87 210.5t87 210.5t215 86.5t215 -86.5t87 -210.5zM553 285q0 94 -58.5 155t-147.5 61t-147.5 -61t-58.5 -155t58.5 -155t147.5 -61t147.5 61t58.5 155z" />
    <glyph glyph-name="p.smcp" horiz-adv-x="516" 
d="M181 0h-91v570h106q81 0 113 -4q78 -11 127.5 -56t49.5 -116q0 -59 -38.5 -105.5t-100.5 -63.5q-45 -12 -148 -12h-18v-213zM390 392q0 69 -70 89q-24 8 -111 8h-28v-195h33q86 0 117 12q59 23 59 86z" />
    <glyph glyph-name="q.smcp" horiz-adv-x="694" 
d="M586 -61l-88 87q-70 -38 -151 -38q-128 0 -215 86.5t-87 210.5t87 210.5t215 86.5t215 -86.5t87 -210.5t-87 -211l79 -79zM553 285q0 94 -58.5 155t-147.5 61t-147.5 -61t-58.5 -155t58.5 -155t147.5 -61q48 0 89 19l-76 77l56 56l84 -85q53 61 53 149z" />
    <glyph glyph-name="r.smcp" horiz-adv-x="557" 
d="M90 570h129q141 0 204 -40t63 -129q0 -61 -36.5 -104.5t-98.5 -57.5l181 -239h-115l-169 227h-67v-227h-91v570zM390 396q0 55 -37 75t-148 20h-24v-185h29q94 0 137 20t43 70z" />
    <glyph glyph-name="s.smcp" horiz-adv-x="491" 
d="M416 525l-50 -66q-61 42 -117 42q-44 0 -69.5 -19.5t-25.5 -54.5q0 -9 2 -17t7.5 -15t10 -12t14.5 -10.5t16 -9t19.5 -8.5t20.5 -7.5t22.5 -7.5t22.5 -7q33 -11 55.5 -22t47 -30t37 -47.5t12.5 -66.5q0 -60 -35 -102.5t-79.5 -59.5t-88.5 -17q-116 0 -203 84l58 62
q39 -36 71.5 -50.5t73.5 -14.5q45 0 76 23t31 69q0 14 -3.5 25.5t-13.5 21.5t-16.5 16t-25 14t-25.5 11t-31 11l-30 10q-30 11 -51 21.5t-42.5 27.5t-32.5 43.5t-11 60.5q0 77 51 118t128 41q92 0 174 -57z" />
    <glyph glyph-name="t.smcp" horiz-adv-x="449" 
d="M414 489h-144v-489h-91v489h-144v81h379v-81z" />
    <glyph glyph-name="u.smcp" horiz-adv-x="622" 
d="M542 570v-303q0 -279 -233 -279q-229 0 -229 279v303h91v-313q0 -94 36.5 -141t103.5 -47t103.5 47t36.5 141v313h91z" />
    <glyph glyph-name="v.smcp" horiz-adv-x="541" 
d="M537 570l-221 -570h-94l-218 570h103l165 -451h2l165 451h98z" />
    <glyph glyph-name="w.smcp" horiz-adv-x="797" 
d="M782 570l-163 -570h-103l-115 434h-2l-124 -434h-103l-157 570h100l115 -430h1l120 430h100l114 -430h2l120 430h95z" />
    <glyph glyph-name="x.smcp" horiz-adv-x="558" 
d="M10 570h116l156 -214l156 214h113l-213 -280l216 -290h-115l-161 221l-161 -221h-113l218 287z" />
    <glyph glyph-name="y.smcp" horiz-adv-x="484" 
d="M288 0h-91v233l-192 337h112l127 -240h2l127 240h106l-191 -334v-236z" />
    <glyph glyph-name="z.smcp" horiz-adv-x="477" 
d="M430 524l-261 -443h283v-81h-407v50l258 439h-255v81h382v-46z" />
    <glyph glyph-name="thorn.smcp" horiz-adv-x="536" 
d="M90 570h91v-100h15q81 0 113 -4q78 -11 127.5 -56t49.5 -116q0 -59 -38.5 -105.5t-100.5 -63.5q-45 -12 -148 -12h-18v-113h-91v570zM181 389v-195h33q86 0 117 12q59 23 59 86q0 69 -70 89q-24 8 -111 8h-28z" />
    <glyph glyph-name="agrave.smcp" horiz-adv-x="553" 
d="M10 0l221 570h94l218 -570h-103l-44 119h-245l-43 -119h-98zM273 451l-92 -251h186l-92 251h-2zM288 611l-134 160l66 51l123 -169z" />
    <glyph glyph-name="aacute.smcp" horiz-adv-x="553" 
d="M10 0l221 570h94l218 -570h-103l-44 119h-245l-43 -119h-98zM273 451l-92 -251h186l-92 251h-2zM397 771l-134 -160l-55 42l123 169z" />
    </font>
</defs>
</svg>
