<?xml version="1.0" standalone="no"?>
<!DOCTYPE svg PUBLIC "-//W3C//DTD SVG 1.1//EN" "http://www.w3.org/Graphics/SVG/1.1/DTD/svg11.dtd" >
<svg xmlns="http://www.w3.org/2000/svg" xmlns:xlink="http://www.w3.org/1999/xlink" version="1.1">
<metadata>
Created by FontForge 20190801 at Sat Nov 16 14:11:00 2013
 By Jimmy Wärting
Copyright (c) 2011 by Wolfgang Homola, distributed by TypeTogether. All rights reserved.
</metadata>
<defs>
<font id="SoleilXb" horiz-adv-x="550" >
  <font-face 
    font-family="SoleilXb"
    font-weight="400"
    font-stretch="normal"
    units-per-em="1000"
    panose-1="2 0 5 3 3 0 0 2 0 4"
    ascent="753"
    descent="-247"
    x-height="536"
    cap-height="700"
    bbox="-210 -322 1353 1145"
    underline-thickness="50"
    underline-position="-100"
    unicode-range="U+000D-FB06"
  />
<missing-glyph 
d="M318 149h-94v90h94v-90zM40 667h470v-667h-470v667zM124 585v-503h302v503h-302zM244 403l0.000976562 15c0 24.667 10 37 30 37c10 0 17.5 -3.16699 22.5 -9.5s7.5 -13.833 7.5 -22.5c0 -14 -5.66699 -25 -17 -33c-12.667 -9.33301 -33 -18.333 -61 -27v-82h90v36
c20 10.667 36.333 22.667 49 36c17.333 18.667 26 42.667 26 72c0 26.667 -10.833 50.667 -32.5 72s-49.834 32 -84.501 32c-37.333 0 -66.333 -10.667 -87 -32s-31 -48.333 -31 -81v-13h88z" />
    <glyph glyph-name="ff" unicode="ff" horiz-adv-x="732" 
d="M414 729l-51 -122c-23.333 12.667 -49 19 -77 19c-19.333 0 -32 -5.66699 -38 -17s-9 -28 -9 -50v-23h104v-132h-104v-404h-162v404h-57v132h57v31c0 64 13.667 111.667 41 143c30 34.667 81 52 153 52c50 0 97.667 -11 143 -33zM780 729l-51 -122
c-23.333 12.667 -49 19 -77 19c-19.333 0 -32 -5.66699 -38 -17s-9 -28 -9 -50v-23h129v-132h-129v-404h-162v404h-57v132h57v31c0 64 13.667 111.667 41 143c30 34.667 81 52 153 52c50 0 97.667 -11 143 -33z" />
    <glyph glyph-name="fi" unicode="fi" horiz-adv-x="654" 
d="M368 404h-129.001v-404h-162v404h-57v132h57v31c0 64 13.667 111.667 41 143c30 34.667 81 52 153 52c33.333 0 66 -5 98 -15l-25 -131c-17.333 6.66699 -36.666 10 -57.999 10c-19.333 0 -32 -5.66699 -38 -17s-9 -28 -9 -50v-23h129v-132zM590.999 0h-162v536h162v-536
zM590.999 600h-162v128h162v-128z" />
    <glyph glyph-name="fl" unicode="fl" horiz-adv-x="654" 
d="M368 404h-129.001v-404h-162v404h-57v132h57v31c0 64 13.667 111.667 41 143c30 34.667 81 52 153 52c33.333 0 66 -5 98 -15l-25 -131c-17.333 6.66699 -36.666 10 -57.999 10c-19.333 0 -32 -5.66699 -38 -17s-9 -28 -9 -50v-23h129v-132zM590.999 750v-750h-162v750
h162z" />
    <glyph glyph-name="ffi" unicode="ffi" horiz-adv-x="1020" 
d="M414 729l-51 -122c-23.333 12.667 -49 19 -77 19c-19.333 0 -32 -5.66699 -38 -17s-9 -28 -9 -50v-23h104v-132h-104v-404h-162v404h-57v132h57v31c0 64 13.667 111.667 41 143c30 34.667 81 52 153 52c50 0 97.667 -11 143 -33zM734 404h-129.001v-404h-162v404h-57v132
h57v31c0 64 13.667 111.667 41 143c30 34.667 81 52 153 52c33.333 0 66 -5 98 -15l-25 -131c-17.333 6.66699 -36.666 10 -57.999 10c-19.333 0 -32 -5.66699 -38 -17s-9 -28 -9 -50v-23h129v-132zM956.999 0h-162v536h162v-536zM956.999 600h-162v128h162v-128z" />
    <glyph glyph-name="ffl" unicode="ffl" horiz-adv-x="1020" 
d="M414 729l-51 -122c-23.333 12.667 -49 19 -77 19c-19.333 0 -32 -5.66699 -38 -17s-9 -28 -9 -50v-23h104v-132h-104v-404h-162v404h-57v132h57v31c0 64 13.667 111.667 41 143c30 34.667 81 52 153 52c50 0 97.667 -11 143 -33zM734 404h-129.001v-404h-162v404h-57v132
h57v31c0 64 13.667 111.667 41 143c30 34.667 81 52 153 52c33.333 0 66 -5 98 -15l-25 -131c-17.333 6.66699 -36.666 10 -57.999 10c-19.333 0 -32 -5.66699 -38 -17s-9 -28 -9 -50v-23h129v-132zM956.999 750v-750h-162v750h162z" />
    <glyph glyph-name="f_k" unicode="fk" horiz-adv-x="937" 
d="M368 404h-129.001v-404h-162v404h-57v132h57v31c0 64 13.667 111.667 41 143c30 34.667 81 52 153 52c33.333 0 66 -5 98 -15l-25 -131c-17.333 6.66699 -36.666 10 -57.999 10c-19.333 0 -32 -5.66699 -38 -17s-9 -28 -9 -50v-23h129v-132zM941.999 0h-198l-113 184
l-40 -47v-137h-162v750h162v-414h1l158 200h181l-193 -226z" />
    <glyph glyph-name="f_b" unicode="fb" horiz-adv-x="1017" 
d="M368 404h-129.001v-404h-162v404h-57v132h57v31c0 64 13.667 111.667 41 143c30 34.667 81 52 153 52c33.333 0 66 -5 98 -15l-25 -131c-17.333 6.66699 -36.666 10 -57.999 10c-19.333 0 -32 -5.66699 -38 -17s-9 -28 -9 -50v-23h129v-132zM428.999 0v750h162v-264
c34 41.333 85 62 153 62c68.667 0 126.334 -27.5 173.001 -82.5s70 -121.5 70 -199.5c0 -77.333 -23.333 -143 -70 -197s-104.667 -81 -174 -81c-32 0 -63.333 6.16699 -94 18.5s-54.334 32.833 -71.001 61.5l-13 -68h-136zM590.999 351l0.000976562 -177
c30 -33.333 67.667 -50 113 -50c38 0 67.333 14.667 88 44s31 63.333 31 102c0 38 -10.833 71.167 -32.5 99.5s-49.834 42.5 -84.501 42.5c-48.667 0 -87 -20.333 -115 -61z" />
    <glyph glyph-name="f_h" unicode="fh" horiz-adv-x="988" 
d="M368 404h-129.001v-404h-162v404h-57v132h57v31c0 64 13.667 111.667 41 143c30 34.667 81 52 153 52c33.333 0 66 -5 98 -15l-25 -131c-17.333 6.66699 -36.666 10 -57.999 10c-19.333 0 -32 -5.66699 -38 -17s-9 -28 -9 -50v-23h129v-132zM590.999 750l0.00195312 -269
c40 44.667 90.667 67 152 67c53.333 0 99.333 -23.667 138 -71c20 -25.333 33 -53.5 39 -84.5s9 -69.167 9 -114.5v-278h-162v272c0 50.667 -4 85 -12 103c-10.667 24.667 -32 37 -64 37c-18.667 0 -37.334 -5 -56.001 -15s-33.334 -23.667 -44.001 -41v-356h-162v750h162z
" />
    <glyph glyph-name="f_t" unicode="ft" horiz-adv-x="773" 
d="M414 729l-51 -122c-23.333 12.667 -49 19 -77 19c-19.333 0 -32 -5.66699 -38 -17s-9 -28 -9 -50v-23h124v-132h-124v-404h-162v404h-57v132h57v31c0 64 13.667 111.667 41 143c30 34.667 81 52 153 52c50 0 97.667 -11 143 -33zM747 404h-132v-196
c0 -21.333 1 -37.333 3 -48c4.66699 -24 17 -36 37 -36c19.333 0 38.666 5 57.999 15l51 -118c-38 -22 -84 -33 -138 -33c-42.667 0 -78.667 11.167 -108 33.5s-48.666 52.833 -57.999 91.5c-4.66699 20 -7 47.667 -7 83v208h-56v132h56l30 115h132v-115h132v-132z" />
    <glyph glyph-name="f_j" unicode="fj" horiz-adv-x="660" 
d="M368 404h-129.001v-404h-162v404h-57v132h57v31c0 64 13.667 111.667 41 143c30 34.667 81 52 153 52c33.333 0 66 -5 98 -15l-25 -131c-17.333 6.66699 -36.666 10 -57.999 10c-19.333 0 -32 -5.66699 -38 -17s-9 -28 -9 -50v-23h129v-132zM596.999 600h-162v128h162
v-128zM596.999 536v-570c0 -64 -13.667 -111.667 -41 -143c-30 -34.667 -81 -52 -153 -52c-40 0 -80 7.33301 -120 22l42 126c19.333 -8 40.333 -12 63 -12c19.333 0 32 5.66699 38 17s9 28 9 50v562h162z" />
    <glyph glyph-name="f_f_j" unicode="ffj" horiz-adv-x="1026" 
d="M414 729l-51 -122c-23.333 12.667 -49 19 -77 19c-19.333 0 -32 -5.66699 -38 -17s-9 -28 -9 -50v-23h104v-132h-104v-404h-162v404h-57v132h57v31c0 64 13.667 111.667 41 143c30 34.667 81 52 153 52c50 0 97.667 -11 143 -33zM734 404h-129.001v-404h-162v404h-57v132
h57v31c0 64 13.667 111.667 41 143c30 34.667 81 52 153 52c33.333 0 66 -5 98 -15l-25 -131c-17.333 6.66699 -36.666 10 -57.999 10c-19.333 0 -32 -5.66699 -38 -17s-9 -28 -9 -50v-23h129v-132zM962.999 600h-162v128h162v-128zM962.999 536v-570
c0 -64 -13.667 -111.667 -41 -143c-30 -34.667 -81 -52 -153 -52c-40 0 -80 7.33301 -120 22l42 126c19.333 -8 40.333 -12 63 -12c19.333 0 32 5.66699 38 17s9 28 9 50v562h162z" />
    <glyph glyph-name="f_f_k" unicode="ffk" horiz-adv-x="1303" 
d="M414 729l-51 -122c-23.333 12.667 -49 19 -77 19c-19.333 0 -32 -5.66699 -38 -17s-9 -28 -9 -50v-23h104v-132h-104v-404h-162v404h-57v132h57v31c0 64 13.667 111.667 41 143c30 34.667 81 52 153 52c50 0 97.667 -11 143 -33zM734 404h-129.001v-404h-162v404h-57v132
h57v31c0 64 13.667 111.667 41 143c30 34.667 81 52 153 52c33.333 0 66 -5 98 -15l-25 -131c-17.333 6.66699 -36.666 10 -57.999 10c-19.333 0 -32 -5.66699 -38 -17s-9 -28 -9 -50v-23h129v-132zM1308 0h-198l-113 184l-40 -47v-137h-162v750h162v-414h1l158 200h181
l-193 -226z" />
    <glyph glyph-name="f_f_b" unicode="ffb" horiz-adv-x="1383" 
d="M414 729l-51 -122c-23.333 12.667 -49 19 -77 19c-19.333 0 -32 -5.66699 -38 -17s-9 -28 -9 -50v-23h104v-132h-104v-404h-162v404h-57v132h57v31c0 64 13.667 111.667 41 143c30 34.667 81 52 153 52c50 0 97.667 -11 143 -33zM734 404h-129.001v-404h-162v404h-57v132
h57v31c0 64 13.667 111.667 41 143c30 34.667 81 52 153 52c33.333 0 66 -5 98 -15l-25 -131c-17.333 6.66699 -36.666 10 -57.999 10c-19.333 0 -32 -5.66699 -38 -17s-9 -28 -9 -50v-23h129v-132zM794.999 0v750h162v-264c34 41.333 85 62 153 62
c68.667 0 126.334 -27.5 173.001 -82.5s70 -121.5 70 -199.5c0 -77.333 -23.333 -143 -70 -197s-104.667 -81 -174 -81c-32 0 -63.333 6.16699 -94 18.5s-54.334 32.833 -71.001 61.5l-13 -68h-136zM956.999 351l0.000976562 -177c30 -33.333 67.667 -50 113 -50
c38 0 67.333 14.667 88 44s31 63.333 31 102c0 38 -10.833 71.167 -32.5 99.5s-49.834 42.5 -84.501 42.5c-48.667 0 -87 -20.333 -115 -61z" />
    <glyph glyph-name="f_f_h" unicode="ffh" horiz-adv-x="1354" 
d="M414 729l-51 -122c-23.333 12.667 -49 19 -77 19c-19.333 0 -32 -5.66699 -38 -17s-9 -28 -9 -50v-23h104v-132h-104v-404h-162v404h-57v132h57v31c0 64 13.667 111.667 41 143c30 34.667 81 52 153 52c50 0 97.667 -11 143 -33zM734 404h-129.001v-404h-162v404h-57v132
h57v31c0 64 13.667 111.667 41 143c30 34.667 81 52 153 52c33.333 0 66 -5 98 -15l-25 -131c-17.333 6.66699 -36.666 10 -57.999 10c-19.333 0 -32 -5.66699 -38 -17s-9 -28 -9 -50v-23h129v-132zM956.999 750l0.00195312 -269c40 44.667 90.667 67 152 67
c53.333 0 99.333 -23.667 138 -71c20 -25.333 33 -53.5 39 -84.5s9 -69.167 9 -114.5v-278h-162v272c0 50.667 -4 85 -12 103c-10.667 24.667 -32 37 -64 37c-18.667 0 -37.334 -5 -56.001 -15s-33.334 -23.667 -44.001 -41v-356h-162v750h162z" />
    <glyph glyph-name="f_f_t" unicode="fft" horiz-adv-x="1139" 
d="M780 729l-51 -122c-23.333 12.667 -49 19 -77 19c-19.333 0 -32 -5.66699 -38 -17s-9 -28 -9 -50v-23h124v-132h-124v-404h-162v404h-57v132h57v31c0 64 13.667 111.667 41 143c30 34.667 81 52 153 52c50 0 97.667 -11 143 -33zM1113 404h-132v-196
c0 -21.333 1 -37.333 3 -48c4.66699 -24 17 -36 37 -36c19.333 0 38.666 5 57.999 15l51 -118c-38 -22 -84 -33 -138 -33c-42.667 0 -78.667 11.167 -108 33.5s-48.666 52.833 -57.999 91.5c-4.66699 20 -7 47.667 -7 83v208h-56v132h56l30 115h132v-115h132v-132zM414 729
l-51 -122c-23.333 12.667 -49 19 -77 19c-19.333 0 -32 -5.66699 -38 -17s-9 -28 -9 -50v-23h104v-132h-104v-404h-162v404h-57v132h57v31c0 64 13.667 111.667 41 143c30 34.667 81 52 153 52c50 0 97.667 -11 143 -33z" />
    <glyph glyph-name="f_iacute" unicode="f&#xed;" horiz-adv-x="654" 
d="M368 404h-129.001v-404h-162v404h-57v132h57v31c0 64 13.667 111.667 41 143c30 34.667 81 52 153 52c33.333 0 66 -5 98 -15l-25 -131c-17.333 6.66699 -36.666 10 -57.999 10c-19.333 0 -32 -5.66699 -38 -17s-9 -28 -9 -50v-23h129v-132zM696.999 760l-150 -180
l-99 75l142 190zM590.999 0h-162v536h162v-536z" />
    <glyph glyph-name="t_t" unicode="tt" horiz-adv-x="784" 
d="M758 404h-132.001v-196c0 -21.333 1 -37.333 3 -48c4.66699 -24 17 -36 37 -36s39.333 5 58 15l51 -118c-38 -22 -84 -33 -138 -33c-42.667 0 -78.667 11.167 -108 33.5s-48.666 52.833 -57.999 91.5c-4.66699 20 -7 47.667 -7 83v208h-56v132h56l30 115h132v-115h132
v-132zM360.999 404h-127.001v-196c0 -21.333 1 -37.333 3 -48c4.66699 -24 17 -36 37 -36s39.333 5 58 15l51 -118c-38 -22 -84 -33 -138 -33c-42.667 0 -78.667 11.167 -108 33.5s-48.666 52.833 -57.999 91.5c-4.66699 20 -7 47.667 -7 83v208h-61v132h61l30 115h132v-115
h127v-132z" />
    <glyph glyph-name=".notdef" 
d="M318 149h-94v90h94v-90zM40 667h470v-667h-470v667zM124 585v-503h302v503h-302zM244 403l0.000976562 15c0 24.667 10 37 30 37c10 0 17.5 -3.16699 22.5 -9.5s7.5 -13.833 7.5 -22.5c0 -14 -5.66699 -25 -17 -33c-12.667 -9.33301 -33 -18.333 -61 -27v-82h90v36
c20 10.667 36.333 22.667 49 36c17.333 18.667 26 42.667 26 72c0 26.667 -10.833 50.667 -32.5 72s-49.834 32 -84.501 32c-37.333 0 -66.333 -10.667 -87 -32s-31 -48.333 -31 -81v-13h88z" />
    <glyph glyph-name=".null" horiz-adv-x="0" 
 />
    <glyph glyph-name=".null" horiz-adv-x="0" 
 />
    <glyph glyph-name="CR" unicode="&#xd;" horiz-adv-x="500" 
 />
    <glyph glyph-name="space" unicode=" " horiz-adv-x="250" 
 />
    <glyph glyph-name="exclam" unicode="!" horiz-adv-x="331" 
d="M253 700v-130l-11 -320h-153l-11 320v130h175zM251 0h-171v162h171v-162z" />
    <glyph glyph-name="quotedbl" unicode="&#x22;" horiz-adv-x="517" 
d="M216 401h-146l-10 299h166zM447 401h-146l-10 299h166z" />
    <glyph glyph-name="numbersign" unicode="#" 
d="M-5 262h78l29 143h-55v105h76l31 157h121l-32 -157h128l32 157h121l-32 -157h63v-105h-84l-29 -143h61v-105h-82l-31 -157h-121l31 157h-128l-31 -157h-120l31 157h-57v105zM222 405l-29 -143h128l29 143h-128z" />
    <glyph glyph-name="dollar" unicode="$" 
d="M1 106l99.9971 97.001c19.333 -17.333 34.166 -30.333 44.499 -39s26 -18.167 47 -28.5s41.5 -15.5 61.5 -15.5c71.333 0 107 24.667 107 74c0 8 -1.33301 15.333 -4 22s-7.16699 12.834 -13.5 18.501s-12.666 10.5 -18.999 14.5s-15 8.33301 -26 13
s-20.333 8.5 -28 11.5s-18.5 7 -32.5 12s-25 8.83301 -33 11.5c-48 18 -86 40.333 -114 67s-42 64.334 -42 113.001c0 59.333 17.5 105.666 52.5 138.999s81.167 52.666 138.5 57.999v96h90v-98c59.333 -9.33301 118 -35.333 176 -78l-87 -108c-52 40.667 -100 61 -144 61
c-18.667 0 -35.167 -5.5 -49.5 -16.5s-21.5 -25.833 -21.5 -44.5c0 -8 2.66699 -15.333 8 -22s13.833 -13 25.5 -19s22.834 -11 33.501 -15s25.334 -9.16699 44.001 -15.5s34 -11.833 46 -16.5c49.333 -18.667 89 -42.834 119 -72.501s45 -70.5 45 -122.5
c0 -58 -19.167 -104.667 -57.5 -140s-86.5 -58 -144.5 -68v-101h-90v97c-83.333 6 -160.666 44.333 -231.999 115z" />
    <glyph glyph-name="percent" unicode="%" horiz-adv-x="858" 
d="M227 706c50 0 93 -16.5 129 -49.5s54 -74.833 54 -125.5s-18 -92.5 -54 -125.5s-79 -49.5 -129 -49.5s-93 16.5 -129 49.5s-54 74.833 -54 125.5s18 92.5 54 125.5s79 49.5 129 49.5zM227 595c-16.667 0 -30.334 -6 -41.001 -18s-16 -27.333 -16 -46s5.33301 -34 16 -46
s24.334 -18 41.001 -18s30.334 6 41.001 18s16 27.333 16 46s-5.33301 34 -16 46s-24.334 18 -41.001 18zM631 344c50 0 93 -16.5 129 -49.5s54 -74.833 54 -125.5s-18 -92.5 -54 -125.5s-79 -49.5 -129 -49.5s-93 16.5 -129 49.5s-54 74.833 -54 125.5s18 92.5 54 125.5
s79 49.5 129 49.5zM631 233c-16.667 0 -30.334 -6 -41.001 -18s-16 -27.333 -16 -46s5.33301 -34 16 -46s24.334 -18 41.001 -18s30.334 6 41.001 18s16 27.333 16 46s-5.33301 34 -16 46s-24.334 18 -41.001 18zM640 720l77 -57l-499 -683l-77 57z" />
    <glyph glyph-name="ampersand" unicode="&#x26;" horiz-adv-x="696" 
d="M707 70l-86.001 -102l-119 106c-46.667 -57.333 -111.667 -86 -195 -86c-71.333 0 -132.333 22.167 -183 66.5s-76 98.166 -76 161.499c0 32 8.83301 63.5 26.5 94.5s44.167 58.167 79.5 81.5c-22 24 -37 45.5 -45 64.5s-12 41.5 -12 67.5c0 54 22.167 98.833 66.5 134.5
s94.5 53.5 150.5 53.5c107.333 0 175.666 -53.333 204.999 -160l-144 -42c-7.33301 46.667 -28.666 70 -63.999 70c-16 0 -29.667 -5.66699 -41 -17s-17 -25 -17 -41c0 -18 7.33301 -36.667 22 -56s42.334 -47.333 83.001 -84l-86 -100l-24 21
c-29.333 -19.333 -44 -45.666 -44 -78.999c0 -29.333 10.167 -54 30.5 -74s44.833 -30 73.5 -30c36 0 66.333 15.667 91 47l-69 63l85 101z" />
    <glyph glyph-name="quotesingle" unicode="'" horiz-adv-x="287" 
d="M217 401h-147l-10 299h167z" />
    <glyph glyph-name="parenleft" unicode="(" horiz-adv-x="385" 
d="M384 -64l-60 -113.999c-199.333 122 -299 284 -299 486c0 199.333 99 360.666 297 483.999l63 -113c-132.667 -86 -199 -209.667 -199 -371c0 -164 66 -288 198 -372z" />
    <glyph glyph-name="parenright" unicode=")" horiz-adv-x="385" 
d="M360 308c0 -202 -99.667 -364.001 -299 -486.001l-60 114c132 84 198 208 198 372c0 161.333 -66.333 285 -199 371l63 113c198 -123.333 297 -284.666 297 -483.999z" />
    <glyph glyph-name="asterisk" unicode="*" horiz-adv-x="512" 
d="M459 511l-131 -13l99 -88l-118 -85l-53 120l-53 -120l-118 85l99 88l-131 13l45 138l112 -65l-27 127h145l-28 -128l114 66z" />
    <glyph glyph-name="plus" unicode="+" 
d="M342 561v-182h183v-136h-183v-183h-136v183h-182v136h182v182h136z" />
    <glyph glyph-name="comma" unicode="," horiz-adv-x="250" 
d="M214 162l-75 -285h-153l58 285h170z" />
    <glyph glyph-name="hyphen" unicode="-" horiz-adv-x="442" 
d="M367 228h-292v132h292v-132z" />
    <glyph glyph-name="period" unicode="." horiz-adv-x="250" 
d="M210 0h-171v162h171v-162z" />
    <glyph glyph-name="slash" unicode="/" horiz-adv-x="421" 
d="M421 718l-289 -780l-132 52l289 780z" />
    <glyph glyph-name="zero" unicode="0" horiz-adv-x="566" 
d="M283 676c80.667 0 143 -30.333 187 -91s66 -145 66 -253s-22 -192.333 -66 -253s-106.333 -91 -187 -91s-143 30.333 -187 91s-66 145 -66 253s22 192.333 66 253s106.333 91 187 91zM283 542c-60.667 0 -91 -70 -91 -210s30.333 -210 91 -210s91 70 91 210
s-30.333 210 -91 210z" />
    <glyph glyph-name="one" unicode="1" horiz-adv-x="364" 
d="M293 0h-160v483c-12 -6 -42.667 -19.333 -92 -40v143c56 28 105 54 147 78h105v-664z" />
    <glyph glyph-name="two" unicode="2" horiz-adv-x="530" 
d="M508 132l-0.00195312 -131.999h-455v113c84 86 158 174.333 222 265c29.333 42 44 77.667 44 107c0 18 -5.33301 32.333 -16 43s-25.334 16 -44.001 16c-43.333 0 -65 -30 -65 -90l-159 24c4.66699 59.333 28.334 107.166 71.001 143.499s94.334 54.5 155.001 54.5
c60 0 111.667 -16.667 155 -50s65 -79.333 65 -138c0 -60.667 -22.667 -122.667 -68 -186c-13.333 -18 -27.666 -36.167 -42.999 -54.5s-34.833 -40.5 -58.5 -66.5s-38.5 -42.333 -44.5 -49h241z" />
    <glyph glyph-name="three" unicode="3" horiz-adv-x="543" 
d="M185 275l0.00292969 122.002c26 -1.33301 49.667 1 71 7c40.667 10.667 61 34.667 61 72c0 18.667 -6.33301 34.334 -19 47.001s-30.667 19 -54 19c-18.667 0 -34.334 -5.83301 -47.001 -17.5s-20.334 -27.834 -23.001 -48.501l-134 60c13.333 45.333 38.833 80 76.5 104
s80.167 36 127.5 36c60.667 0 114.667 -16.5 162 -49.5s71 -75.833 71 -128.5c0 -28 -7.5 -55 -22.5 -81s-34.833 -46.333 -59.5 -61c33.333 -12.667 59.833 -33.834 79.5 -63.501s29.5 -62.834 29.5 -99.501c0 -62.667 -23.5 -112.5 -70.5 -149.5
s-105.167 -55.5 -174.5 -55.5c-51.333 0 -98.333 13.167 -141 39.5s-73.334 63.833 -92.001 112.5l135 61c18 -52.667 52 -79 102 -79c21.333 0 39.833 6.5 55.5 19.5s23.5 30.5 23.5 52.5c0 56.667 -38 85 -114 85c-16 0 -30.333 -1.33301 -43 -4z" />
    <glyph glyph-name="four" unicode="4" horiz-adv-x="559" 
d="M452 0h-157.999v161h-274v127c65.333 84.667 156.666 210 273.999 376h158v-373h91v-130h-91v-161zM189.001 291h104.999v170c-5.33301 -8.66699 -21.666 -36 -48.999 -82s-46 -75.333 -56 -88z" />
    <glyph glyph-name="five" unicode="5" horiz-adv-x="522" 
d="M468 664l0.000976562 -132h-222c-1.33301 -31.333 -4.33301 -71.333 -9 -120c23.333 10 46.333 15 69 15c55.333 0 100.666 -20.167 135.999 -60.5s53 -87.833 53 -142.5c0 -68.667 -23 -125.167 -69 -169.5s-103 -66.5 -171 -66.5c-108 0 -185 46.667 -231 140l136 67
c16.667 -48.667 48.334 -73 95.001 -73c23.333 0 42.166 8.83301 56.499 26.5s21.5 38.5 21.5 62.5c0 24.667 -7.16699 45.167 -21.5 61.5s-33.833 24.5 -58.5 24.5c-32 0 -58 -13.667 -78 -41l-101 76c12 124 19 234.667 21 332h373z" />
    <glyph glyph-name="six" unicode="6" horiz-adv-x="563" 
d="M392 711l54.001 -121c-115.333 -48 -190.666 -109.333 -225.999 -184c27.333 20 59.666 30 96.999 30c61.333 0 112.666 -20.333 153.999 -61s62 -90.334 62 -149.001c0 -66.667 -22.167 -123 -66.5 -169s-101.833 -69 -172.5 -69c-80 0 -144 26.833 -192 80.5
s-72 119.167 -72 196.5c0 102.667 33.667 191.834 101 267.501s154.333 135.167 261 178.5zM190.001 261c-6 -38.667 0.000976562 -72.167 18.001 -100.5s44.667 -42.5 80 -42.5c25.333 0 45.833 9.33301 61.5 28s23.5 40.667 23.5 66c0 31.333 -9.16699 55.333 -27.5 72
s-40.5 25 -66.5 25c-38.667 0 -68.334 -16 -89.001 -48z" />
    <glyph glyph-name="seven" unicode="7" horiz-adv-x="487" 
d="M472 664l-0.00195312 -96.001c-106 -221.333 -196.667 -422.333 -272 -603l-142 65c26.667 62 54.834 124.833 84.501 188.5s59.834 126.334 90.501 188.001s51 103.5 61 125.5h-284v132h462z" />
    <glyph glyph-name="eight" unicode="8" horiz-adv-x="564" 
d="M426 349c33.333 -20 57.668 -42 73.001 -66s23 -55.333 23 -94c0 -56.667 -22.5 -104.334 -67.5 -143.001s-102.5 -58 -172.5 -58s-127.5 19.333 -172.5 58s-67.5 86.334 -67.5 143.001c0 38.667 7.66699 70 23 94s39.666 46 72.999 66c-50.667 32 -76 79 -76 141
c0 52.667 20.5 96.834 61.5 132.501s93.5 53.5 157.5 53.5c64.667 0 117.667 -17.833 159 -53.5s62 -79.834 62 -132.501c0 -62 -25.333 -109 -76 -141zM282.002 281c-23.333 0 -42.5 -7.66699 -57.5 -23s-22.5 -34.666 -22.5 -57.999s7.5 -42.833 22.5 -58.5
s34.167 -23.5 57.5 -23.5s42.5 7.83301 57.5 23.5s22.5 35.167 22.5 58.5s-7.5 42.666 -22.5 57.999s-34.167 23 -57.5 23zM282.002 546c-20 0 -36 -6.33301 -48 -19s-18 -29 -18 -49s6 -36.5 18 -49.5s28 -19.5 48 -19.5s36 6.5 48 19.5s18 29.5 18 49.5s-6 36.333 -18 49
s-28 19 -48 19z" />
    <glyph glyph-name="nine" unicode="9" horiz-adv-x="563" 
d="M171 -47l-54.001 121c115.333 48 190.666 109.333 225.999 184c-27.333 -20 -59.666 -30 -96.999 -30c-61.333 0 -112.666 20.333 -153.999 61s-62 90.334 -62 149.001c0 66.667 22.167 123 66.5 169s101.833 69 172.5 69c80 0 144 -26.833 192 -80.5
s72 -119.167 72 -196.5c0 -102.667 -33.667 -191.834 -101 -267.501s-154.333 -135.167 -261 -178.5zM372.999 403c6 38.667 -0.000976562 72.167 -18.001 100.5s-44.667 42.5 -80 42.5c-25.333 0 -45.833 -9.33301 -61.5 -28s-23.5 -40.667 -23.5 -66
c0 -31.333 9.16699 -55.333 27.5 -72s40.5 -25 66.5 -25c38.667 0 68.334 16 89.001 48z" />
    <glyph glyph-name="colon" unicode=":" horiz-adv-x="250" 
d="M210 374h-171v162h171v-162zM210 0h-171v162h171v-162z" />
    <glyph glyph-name="semicolon" unicode=";" horiz-adv-x="250" 
d="M214 162l-75 -285h-153l58 285h170zM208 374h-171v162h171v-162z" />
    <glyph glyph-name="less" unicode="&#x3c;" 
d="M7 261v106l535 213v-134l-331 -132l331 -132v-134z" />
    <glyph glyph-name="equal" unicode="=" 
d="M24 488h501v-136h-501v136zM24 270h501v-136h-501v136z" />
    <glyph glyph-name="greater" unicode="&#x3e;" 
d="M542 367v-106l-535 -213v134l331 132l-331 132v134z" />
    <glyph glyph-name="question" unicode="?" horiz-adv-x="547" 
d="M350 250l-162.999 -0.00195312v146c54 18 92.333 35.333 115 52c22 16 33 38 33 66c0 18.667 -5 34.334 -15 47.001s-25 19 -45 19s-35.333 -6.5 -46 -19.5s-16 -31.5 -16 -55.5v-25h-157v21c0 63.333 20.5 114.333 61.5 153s93.5 58 157.5 58c64.667 0 117 -20 157 -60
s60 -85 60 -135c0 -63.333 -20.667 -113 -62 -149c-16.667 -15.333 -43.334 -32.666 -80.001 -51.999v-66zM354.001 -0.00195312h-171v162h171v-162z" />
    <glyph glyph-name="at" unicode="@" horiz-adv-x="800" 
d="M561 -87c-56.667 -27.333 -112.002 -41.001 -166.002 -41.001c-95.333 0 -176.5 33.667 -243.5 101s-100.5 148.333 -100.5 243c0 99.333 34.5 181.833 103.5 247.5s151.833 98.5 248.5 98.5c98 0 181.333 -29.667 250 -89s103 -138.666 103 -237.999
c0 -58.667 -15.167 -107.167 -45.5 -145.5s-72.166 -57.5 -125.499 -57.5c-50 0 -88.333 20.667 -115 62c-21.333 -26 -55 -39 -101 -39c-38 0 -68.833 15.667 -92.5 47s-35.5 68 -35.5 110c0 40 11.333 76.667 34 110s53 50 91 50c32 0 56.667 -10.667 74 -32v28h113v-149
c0 -15.333 0.5 -27.5 1.5 -36.5s3.83301 -17.333 8.5 -25s11.334 -11.5 20.001 -11.5c16.667 0 30.167 7.5 40.5 22.5s15.5 32.167 15.5 51.5c0 76 -19.5 134.167 -58.5 174.5s-97.833 60.5 -176.5 60.5c-67.333 0 -123.5 -22.5 -168.5 -67.5s-67.5 -101.833 -67.5 -170.5
c0 -66.667 22 -123 66 -169s98 -69 162 -69c37.333 0 72.333 8.66699 105 26zM439.998 185.999l0.000976562 72.999c-14.667 12.667 -30.334 19 -47.001 19c-14.667 0 -26 -6.66699 -34 -20s-12 -28.666 -12 -45.999c0 -16 3.66699 -30 11 -42s18.333 -18 33 -18
c22.667 0 39 11.333 49 34z" />
    <glyph glyph-name="A" unicode="A" horiz-adv-x="703" 
d="M692 0h-186l-41 123h-231l-44 -123h-179l291 700h129zM353 454l-72 -202h140l-67 202h-1z" />
    <glyph glyph-name="B" unicode="B" horiz-adv-x="617" 
d="M71 0v700h191c81.333 0 145 -15 191 -45c56.667 -36.667 85 -89 85 -157c0 -27.333 -7.16699 -52.833 -21.5 -76.5s-33.833 -41.5 -58.5 -53.5c32 -11.333 58.333 -31.5 79 -60.5s31 -61.167 31 -96.5c0 -41.333 -11.667 -78 -35 -110s-55 -56.333 -95 -73
c-44.667 -18.667 -106 -28 -184 -28h-183zM396 208c0 26.667 -8.16797 47.5 -24.501 62.5s-40.166 22.5 -71.499 22.5h-67v-160h25c51.333 0 86 4.66699 104 14c22.667 12 34 32.333 34 61zM232.999 567v-146h29c76 0 114 24 114 72c0 26.667 -8.33301 46 -25 58
c-15.333 10.667 -48 16 -98 16h-20z" />
    <glyph glyph-name="C" unicode="C" horiz-adv-x="675" 
d="M642 638l-78 -125c-47.333 39.333 -96.333 59 -147 59c-57.333 0 -105 -21.5 -143 -64.5s-57 -95.5 -57 -157.5c0 -66 17.5 -119.5 52.5 -160.5s83.833 -61.5 146.5 -61.5c55.333 0 104.333 20.333 147 61l92 -116c-72.667 -56.667 -154.667 -85 -246 -85
c-105.333 0 -192.333 34 -261 102s-103 154.667 -103 260c0 101.333 36.167 187 108.5 257s159.833 105 262.5 105c72.667 0 148 -24.667 226 -74z" />
    <glyph glyph-name="D" unicode="D" horiz-adv-x="713" 
d="M71 0l0.000976562 700h210c48 0 94 -6.5 138 -19.5s85 -32.5 123 -58.5s68.5 -62.167 91.5 -108.5s34.5 -99.833 34.5 -160.5c0 -62 -11.333 -116.5 -34 -163.5s-53.334 -83.833 -92.001 -110.5s-80.667 -46.5 -126 -59.5s-93.333 -19.5 -144 -19.5h-201zM233.001 566
l-0.000976562 -432h9c169.333 0 254 70 254 210c0 72 -20.167 127 -60.5 165s-97.166 57 -170.499 57h-32z" />
    <glyph glyph-name="E" unicode="E" horiz-adv-x="580" 
d="M531 0h-460v700h460v-134h-298v-139h298v-134h-298v-159h298v-134z" />
    <glyph glyph-name="F" unicode="F" horiz-adv-x="506" 
d="M472 276h-239v-276h-162v700h401v-134h-239v-156h239v-134z" />
    <glyph glyph-name="G" unicode="G" horiz-adv-x="789" 
d="M567 276l-163.998 -0.000976562v134h326v-276c-72 -97.333 -176 -146 -312 -146c-106.667 0 -195.334 33.833 -266.001 101.5s-106 154.5 -106 260.5c0 101.333 36.167 187 108.5 257s159.833 105 262.5 105c120.667 0 222 -47.667 304 -143l-112 -98
c-56 67.333 -119.667 101 -191 101c-57.333 0 -105 -21.5 -143 -64.5s-57 -95.5 -57 -157.5c0 -65.333 18.167 -118.666 54.5 -159.999s84.5 -62 144.5 -62c57.333 0 107.666 20.667 150.999 62v86z" />
    <glyph glyph-name="H" unicode="H" horiz-adv-x="734" 
d="M663 0h-162v293h-268v-293h-162v700h162v-273h268v273h162v-700z" />
    <glyph glyph-name="I" unicode="I" horiz-adv-x="304" 
d="M233 0h-162v700h162v-700z" />
    <glyph glyph-name="J" unicode="J" horiz-adv-x="346" 
d="M278 700l0.000976562 -510c0 -74 -16.667 -126.667 -50 -158c-30.667 -29.333 -77.334 -44 -140.001 -44c-50.667 0 -98 12 -142 36l51 126c24.667 -14.667 49 -22 73 -22c19.333 0 32.333 6.66699 39 20c4.66699 10 7 30 7 60v492h162z" />
    <glyph glyph-name="K" unicode="K" horiz-adv-x="647" 
d="M641 700l-239 -285l241 -415h-187l-163 286l-60 -71v-215h-162v700h162v-261l213 261h195z" />
    <glyph glyph-name="L" unicode="L" horiz-adv-x="517" 
d="M513 0h-442v700h162v-566h280v-134z" />
    <glyph glyph-name="M" unicode="M" horiz-adv-x="969" 
d="M736 480l-196 -480h-116l-191 484v-484h-162v700h234l179 -466l186 466h228v-700h-162v480z" />
    <glyph glyph-name="N" unicode="N" horiz-adv-x="746" 
d="M675 0h-146l-296 406v-406h-162v700h143l299 -408v408h162v-700z" />
    <glyph glyph-name="O" unicode="O" horiz-adv-x="828" 
d="M611 350c0 62.667 -18.667 115.334 -56 158.001s-84.333 64 -141 64s-103.667 -21.333 -141 -64s-56 -95.334 -56 -158.001s18.667 -115.334 56 -158.001s84.333 -64 141 -64s103.667 21.333 141 64s56 95.334 56 158.001zM783 350
c0 -100.667 -35.5 -186.167 -106.5 -256.5s-158.5 -105.5 -262.5 -105.5s-191.5 35.167 -262.5 105.5s-106.5 155.833 -106.5 256.5s35.5 186.167 106.5 256.5s158.5 105.5 262.5 105.5s191.5 -35.167 262.5 -105.5s106.5 -155.833 106.5 -256.5z" />
    <glyph glyph-name="P" unicode="P" horiz-adv-x="591" 
d="M71 700h229c32 0 63.167 -4 93.5 -12s58.833 -20.333 85.5 -37s48.167 -39.667 64.5 -69s24.5 -63.333 24.5 -102s-8.16699 -73 -24.5 -103s-37.833 -53.333 -64.5 -70s-55.167 -29 -85.5 -37s-61.5 -12 -93.5 -12h-67v-258h-162v700zM233 566v-174h44
c79.333 0 119 28.333 119 85c0 27.333 -9.16699 49 -27.5 65s-42.5 24 -72.5 24h-63z" />
    <glyph glyph-name="Q" unicode="Q" horiz-adv-x="828" 
d="M777 23l-95 -95l-100 99c-52 -26 -108 -39 -168 -39c-104 0 -191.5 35.167 -262.5 105.5s-106.5 155.833 -106.5 256.5s35.5 186.167 106.5 256.5s158.5 105.5 262.5 105.5s191.5 -35.167 262.5 -105.5s106.5 -155.833 106.5 -256.5c0 -92 -30.667 -172.333 -92 -241z
M487 312l90 -90c22.667 38.667 34 81.334 34 128.001c0 62.667 -18.667 115.334 -56 158.001s-84.333 64 -141 64s-103.667 -21.333 -141 -64s-56 -95.334 -56 -158.001s18.667 -115.334 56 -158.001s84.333 -64 141 -64c20.667 0 40 3 58 9l-80 80z" />
    <glyph glyph-name="R" unicode="R" horiz-adv-x="642" 
d="M71 0l0.00195312 700.001h228c30.667 0 60.667 -4 90 -12s57.166 -20 83.499 -36s47.666 -38.333 63.999 -67s24.5 -61.334 24.5 -98.001c0 -48.667 -13.5 -89.167 -40.5 -121.5s-61.833 -56.833 -104.5 -73.5l211 -292h-202l-185 273h-7v-273h-162zM233.002 566.001
v-159h43c34 0 61.333 6.33301 82 19s31 32 31 58c0 24.667 -8.66699 44.5 -26 59.5s-40 22.5 -68 22.5h-62z" />
    <glyph glyph-name="S" unicode="S" horiz-adv-x="609" 
d="M457 511c-52 43.333 -100.332 64.9961 -144.999 64.9961c-20 0 -37.667 -5.33301 -53 -16s-23 -25.334 -23 -44.001c0 -10 1.83301 -18.667 5.5 -26s10.667 -14 21 -20s18 -10.167 23 -12.5s15.5 -6.16602 31.5 -11.499l27 -9c25.333 -8.66699 46 -16.167 62 -22.5
s35.167 -16.166 57.5 -29.499s39.833 -27.5 52.5 -42.5s23.834 -34.5 33.501 -58.5s14.5 -50.667 14.5 -80c0 -36 -8 -68.167 -24 -96.5s-37.333 -51 -64 -68s-55.667 -29.833 -87 -38.5s-63.666 -13 -96.999 -13c-102 0 -193 40.667 -273 122l105 103
c23.333 -22 41 -37.667 53 -47s28.667 -18.666 50 -27.999s43.666 -14 66.999 -14c27.333 0 50.5 6.5 69.5 19.5s28.5 32.167 28.5 57.5c0 10.667 -2.83301 20.5 -8.5 29.5s-11.5 16.5 -17.5 22.5s-16.333 12.5 -31 19.5s-25.5 11.833 -32.5 14.5
s-19.833 7.33398 -38.5 14.001c-22.667 8.66699 -41.334 16.334 -56.001 23.001s-31.334 16.167 -50.001 28.5s-33.5 25.333 -44.5 39s-20.333 31.167 -28 52.5s-11.5 45 -11.5 71c0 62.667 23.333 111 70 145s102 51 166 51c82.667 0 162 -28.667 238 -86z" />
    <glyph glyph-name="T" unicode="T" horiz-adv-x="494" 
d="M490 566h-162v-566h-162v566h-162v134h486v-134z" />
    <glyph glyph-name="U" unicode="U" horiz-adv-x="714" 
d="M643 330c0 -112.667 -23.168 -197.833 -69.501 -255.5s-119.166 -86.5 -218.499 -86.5c-189.333 0 -284 114 -284 342v370h162v-387c0 -61.333 11 -107.5 33 -138.5s52.333 -46.5 91 -46.5s69 15.5 91 46.5s33 77.167 33 138.5v387h162v-370z" />
    <glyph glyph-name="V" unicode="V" horiz-adv-x="689" 
d="M685 700l-291 -700h-129l-261 700h186l152 -454h1l163 454h179z" />
    <glyph glyph-name="W" unicode="W" horiz-adv-x="966" 
d="M559 700l112 -418h2l108 418h181l-201 -700h-160l-121 432h-2l-124 -432h-153l-197 700h180l105 -418h2l117 418h151z" />
    <glyph glyph-name="X" unicode="X" horiz-adv-x="730" 
d="M722 700l-251 -341l259 -359h-213l-156 225l-159 -225h-202l258 351l-251 349h213l148 -215l152 215h202z" />
    <glyph glyph-name="Y" unicode="Y" horiz-adv-x="628" 
d="M387 0h-162v291l-221 409h199l109 -236h2l122 236h188l-237 -415v-285z" />
    <glyph glyph-name="Z" unicode="Z" horiz-adv-x="568" 
d="M530 619l-284 -485h307v-134h-523v86l281 480h-273v134h492v-81z" />
    <glyph glyph-name="bracketleft" unicode="[" horiz-adv-x="337" 
d="M329 -157h-268v903h268v-127h-118v-650h118v-126z" />
    <glyph glyph-name="backslash" unicode="\" horiz-adv-x="421" 
d="M421 -10l-132 -52l-289 780l132 52z" />
    <glyph glyph-name="bracketright" unicode="]" horiz-adv-x="338" 
d="M276 -157h-268v126h119v650h-119v127h268v-903z" />
    <glyph glyph-name="asciicircum" unicode="^" 
d="M489 322h-149l-65 165l-65 -165h-149l150 379h128z" />
    <glyph glyph-name="underscore" unicode="_" 
d="M550 -216h-550v113h550v-113z" />
    <glyph glyph-name="grave" unicode="`" horiz-adv-x="360" 
d="M163 582l-152 177l107 85l137 -192z" />
    <glyph glyph-name="a" unicode="a" horiz-adv-x="586" 
d="M527 0l-136 0.000976562l-15 42c-28 -36 -75 -54 -141 -54c-52.667 0 -98.167 15.833 -136.5 47.5s-57.5 73.5 -57.5 125.5c0 59.333 22.833 102.666 68.5 129.999s100.167 41 163.5 41c30 0 60.667 -3.66699 92 -11v4c0 32.667 -7.5 57.667 -22.5 75
s-40.167 26 -75.5 26c-44.667 0 -97.667 -15.333 -159 -46l-42 111c77.333 38 156.333 57 237 57c72.667 0 128.167 -20 166.5 -60s57.5 -95.667 57.5 -167v-321zM365 135.001l-0.000976562 95.001c-27.333 6 -48.666 9 -63.999 9c-28 0 -52 -6.33301 -72 -19
s-30 -32.334 -30 -59.001c0 -19.333 7.16699 -35 21.5 -47s31.5 -18 51.5 -18c34 0 65 13 93 39z" />
    <glyph glyph-name="b" unicode="b" horiz-adv-x="651" 
d="M63 0v750h162v-264c34 41.333 85 62 153 62c68.667 0 126.334 -27.5 173.001 -82.5s70 -121.5 70 -199.5c0 -77.333 -23.333 -143 -70 -197s-104.667 -81 -174 -81c-32 0 -63.333 6.16699 -94 18.5s-54.334 32.833 -71.001 61.5l-13 -68h-136zM225 351l0.000976562 -177
c30 -33.333 67.667 -50 113 -50c38 0 67.333 14.667 88 44s31 63.333 31 102c0 38 -10.833 71.167 -32.5 99.5s-49.834 42.5 -84.501 42.5c-48.667 0 -87 -20.333 -115 -61z" />
    <glyph glyph-name="c" unicode="c" horiz-adv-x="525" 
d="M415 166l87.999 -107c-52 -47.333 -119.333 -71 -202 -71c-80 0 -145.167 26 -195.5 78s-75.5 119.333 -75.5 202c0 79.333 25.5 145.833 76.5 199.5s117.167 80.5 198.5 80.5c77.333 0 144.333 -24.333 201 -73l-84 -109c-32 30.667 -66 46 -102 46
c-37.333 0 -67.666 -14 -90.999 -42s-35 -62 -35 -102s11.667 -74 35 -102s52.333 -42 87 -42c38.667 0 71.667 14 99 42z" />
    <glyph glyph-name="d" unicode="d" horiz-adv-x="651" 
d="M588 750v-750h-136l-16 64c-16.667 -26.667 -40.167 -46 -70.5 -58s-61.166 -18 -92.499 -18c-68.667 0 -126.334 27.5 -173.001 82.5s-70 121.5 -70 199.5c0 77.333 23.333 143 70 197s104.667 81 174 81c66 0 116.667 -20.667 152 -62v264h162zM426 361
c-30.667 34 -68.333 51 -113 51c-38 0 -67.333 -14.667 -88 -44s-31 -63.333 -31 -102c0 -38 10.833 -71.167 32.5 -99.5s49.834 -42.5 84.501 -42.5c49.333 0 87.666 20 114.999 60v177z" />
    <glyph glyph-name="e" unicode="e" horiz-adv-x="598" 
d="M551 122c-34 -46.667 -69.667 -80.667 -107 -102s-84.333 -32 -141 -32c-80 0 -145.5 25.167 -196.5 75.5s-76.5 115.833 -76.5 196.5c0 81.333 26.167 149.666 78.5 204.999s117.5 83 195.5 83c75.333 0 138 -23.333 188 -70s75 -105.667 75 -177
c0 -19.333 -2.33301 -43.666 -7 -72.999h-366c5.33301 -34 18.5 -61.167 39.5 -81.5s47.833 -30.5 80.5 -30.5c32 0 57.167 6 75.5 18s37.5 31.667 57.5 59zM200 334l202.999 -0.000976562c-1.33301 28.667 -10.666 50.834 -27.999 66.501s-39.333 23.5 -66 23.5
c-56.667 0 -93 -30 -109 -90z" />
    <glyph glyph-name="f" unicode="f" horiz-adv-x="366" 
d="M414 729l-51 -122c-23.333 12.667 -49 19 -77 19c-19.333 0 -32 -5.66699 -38 -17s-9 -28 -9 -50v-23h129v-132h-129v-404h-162v404h-57v132h57v31c0 64 13.667 111.667 41 143c30 34.667 81 52 153 52c50 0 97.667 -11 143 -33z" />
    <glyph glyph-name="g" unicode="g" horiz-adv-x="647" 
d="M588 536l0.00195312 -511c0 -56 -12 -103.667 -36 -143c-22.667 -38 -54.667 -66.5 -96 -85.5s-87.666 -28.5 -138.999 -28.5c-90 0 -173.667 25 -251 75l59 131c59.333 -46.667 121.666 -70 186.999 -70c35.333 0 63.166 9.83301 83.499 29.5s30.5 48.167 30.5 85.5v43
c-34.667 -41.333 -85.667 -62 -153 -62c-68.667 0 -126.334 26.5 -173.001 79.5s-70 118.5 -70 196.5c0 77.333 23.333 142 70 194s104.667 78 174 78c31.333 0 62 -6 92 -18s53.333 -31.667 70 -59l16 65h136zM426.002 196l0.00292969 165
c-30.667 34 -68.334 51 -113.001 51c-38 0 -67.333 -13.833 -88 -41.5s-31 -60.5 -31 -98.5c0 -37.333 10.667 -69.333 32 -96s49.666 -40 84.999 -40c49.333 0 87.666 20 114.999 60z" />
    <glyph glyph-name="h" unicode="h" horiz-adv-x="622" 
d="M225 750l0.00195312 -269c40 44.667 90.667 67 152 67c53.333 0 99.333 -23.667 138 -71c20 -25.333 33 -53.5 39 -84.5s9 -69.167 9 -114.5v-278h-162v272c0 50.667 -4 85 -12 103c-10.667 24.667 -32 37 -64 37c-18.667 0 -37.334 -5 -56.001 -15
s-33.334 -23.667 -44.001 -41v-356h-162v750h162z" />
    <glyph glyph-name="i" unicode="i" horiz-adv-x="288" 
d="M225 0h-162v536h162v-536zM225 600h-162v128h162v-128z" />
    <glyph glyph-name="j" unicode="j" horiz-adv-x="294" 
d="M231 600h-162v128h162v-128zM231 536v-570c0 -64 -13.667 -111.667 -41 -143c-30 -34.667 -81 -52 -153 -52c-40 0 -80 7.33301 -120 22l42 126c18.667 -8 39.667 -12 63 -12c19.333 0 32 5.66699 38 17s9 28 9 50v562h162z" />
    <glyph glyph-name="k" unicode="k" horiz-adv-x="571" 
d="M576 0h-198l-113 184l-40 -47v-137h-162v750h162v-414h1l158 200h181l-193 -226z" />
    <glyph glyph-name="l" unicode="l" horiz-adv-x="288" 
d="M225 750v-750h-162v750h162z" />
    <glyph glyph-name="m" unicode="m" horiz-adv-x="932" 
d="M873 0l-161.999 -0.000976562v272c0 50.667 -4 85 -12 103c-10.667 24.667 -32 37 -64 37c-37.333 0 -67.333 -17.333 -90 -52c2.66699 -23.333 4 -50.666 4 -81.999v-278h-162v272c0 50.667 -4 85 -12 103c-10.667 24.667 -32 37 -64 37c-34 0 -62.667 -12.667 -86 -38
v-374h-162v536h137l12 -60c39.333 48 89.666 72 150.999 72c53.333 0 99.333 -23.667 138 -71c1.33301 -2 5 -7.33301 11 -16c40 58 98.333 87 175 87c53.333 0 99.333 -23.667 138 -71c20 -25.333 33 -53.5 39 -84.5s9 -69.167 9 -114.5v-278z" />
    <glyph glyph-name="n" unicode="n" horiz-adv-x="622" 
d="M63 536h136.001l14 -69c40.667 54 95.334 81 164.001 81c53.333 0 99.333 -23.667 138 -71c20 -25.333 33 -53.5 39 -84.5s9 -69.167 9 -114.5v-278h-162v272c0 50.667 -4 85 -12 103c-10.667 24.667 -32 37 -64 37c-18.667 0 -37.334 -5 -56.001 -15
s-33.334 -23.667 -44.001 -41v-356h-162v536z" />
    <glyph glyph-name="o" unicode="o" horiz-adv-x="626" 
d="M313 548c82 0 149.667 -26.667 203 -80s80 -120 80 -200s-26.667 -146.667 -80 -200s-121 -80 -203 -80s-149.667 26.667 -203 80s-80 120 -80 200s26.667 146.667 80 200s121 80 203 80zM432 268c0 41.333 -11 75.666 -33 102.999s-50.667 41 -86 41
s-64 -13.667 -86 -41s-33 -61.666 -33 -102.999s11 -75.666 33 -102.999s50.667 -41 86 -41s64 13.667 86 41s33 61.666 33 102.999z" />
    <glyph glyph-name="p" unicode="p" horiz-adv-x="651" 
d="M63 536h135.998l15 -65c17.333 26.667 41.333 46.167 72 58.5s61.334 18.5 92.001 18.5c68.667 0 126.334 -27.5 173.001 -82.5s70 -121.5 70 -199.5c0 -77.333 -23.333 -143 -70 -197s-104.667 -81 -174 -81c-68 0 -118.667 20.667 -152 62v-300h-162v786zM224.998 351
l0.000976562 -177c30 -33.333 67.667 -50 113 -50c38 0 67.333 14.667 88 44s31 63.333 31 102c0 38 -10.833 71.167 -32.5 99.5s-49.834 42.5 -84.501 42.5c-48.667 0 -87 -20.333 -115 -61z" />
    <glyph glyph-name="q" unicode="q" horiz-adv-x="651" 
d="M588 -250h-161.999v300c-34.667 -41.333 -85.667 -62 -153 -62c-68.667 0 -126.334 27.5 -173.001 82.5s-70 121.5 -70 199.5c0 77.333 23.333 143 70 197s104.667 81 174 81c31.333 0 62 -6 92 -18s53.333 -31.667 70 -59l16 65h136v-786zM426.001 361
c-30.667 34 -68.333 51 -113 51c-38 0 -67.333 -14.667 -88 -44s-31 -63.333 -31 -102c0 -38 10.833 -71.167 32.5 -99.5s49.834 -42.5 84.501 -42.5c49.333 0 87.666 20 114.999 60v177z" />
    <glyph glyph-name="r" unicode="r" horiz-adv-x="381" 
d="M200 536l14.001 -64c33.333 50.667 73.666 76 120.999 76c26 0 50 -4.66699 72 -14l-40 -134c-14.667 8 -31.667 12 -51 12c-18 0 -35.333 -4.5 -52 -13.5s-29.667 -20.833 -39 -35.5v-363h-162v536h137z" />
    <glyph glyph-name="s" unicode="s" horiz-adv-x="492" 
d="M452 473l-86.998 -96.001c-33.333 30.667 -68.333 46 -105 46c-11.333 0 -21.333 -2.66699 -30 -8s-13 -12.333 -13 -21c0 -14 6.5 -25.667 19.5 -35s32.833 -19.666 59.5 -30.999c20.667 -8.66699 35.167 -14.834 43.5 -18.501s21.5 -10.834 39.5 -21.501s31 -21 39 -31
s15.667 -23.333 23 -40s11 -35 11 -55c0 -55.333 -20.667 -98.166 -62 -128.499s-90.666 -45.5 -147.999 -45.5c-84 0 -159.667 31.667 -227 95l88 96c24 -23.333 45.333 -40.166 64 -50.499s40.667 -15.5 66 -15.5c13.333 0 26.333 3 39 9s19 14.667 19 26
c0 4.66699 -0.833008 9.16699 -2.5 13.5s-4.5 8.5 -8.5 12.5s-7.83301 7.5 -11.5 10.5s-9.16699 6.33301 -16.5 10l-18 9c-4.66699 2.33301 -11.834 5.66602 -21.501 9.99902s-16.834 7.5 -21.501 9.5c-18.667 8.66699 -34.334 16.834 -47.001 24.501s-26 17.667 -40 30
s-24.5 27.333 -31.5 45s-10.5 37.5 -10.5 59.5c0 52 19.5 92.667 58.5 122s85.5 44 139.5 44c76 0 140 -25 192 -75z" />
    <glyph glyph-name="t" unicode="t" horiz-adv-x="392" 
d="M366 404h-132v-196c0 -21.333 1 -37.333 3 -48c4.66699 -24 17 -36 37 -36s39.333 5 58 15l51 -118c-38 -22 -84 -33 -138 -33c-43.333 0 -79.5 11.167 -108.5 33.5s-48.167 52.833 -57.5 91.5c-4.66699 20 -7 47.667 -7 83v208h-61v132h61l30 115h132v-115h132v-132z
" />
    <glyph glyph-name="u" unicode="u" horiz-adv-x="622" 
d="M559 0h-136.001l-14 69c-40.667 -54 -95.334 -81 -164.001 -81c-53.333 0 -99.333 23.667 -138 71c-20 25.333 -33 53.5 -39 84.5s-9 69.167 -9 114.5v278h162v-272c0 -50.667 4 -85 12 -103c10.667 -24.667 32 -37 64 -37c18.667 0 37.334 5 56.001 15
s33.334 23.667 44.001 41v356h162v-536z" />
    <glyph glyph-name="v" unicode="v" horiz-adv-x="563" 
d="M378 536h181l-224 -536h-130l-201 536h179l95 -312h2z" />
    <glyph glyph-name="w" unicode="w" horiz-adv-x="817" 
d="M476 536l81 -316h2l77 316h169l-154 -536h-170l-73 282h-2l-74 -282h-174l-146 536h172l71 -317h2l84 317h135z" />
    <glyph glyph-name="x" unicode="x" horiz-adv-x="618" 
d="M613 536l-194 -268l191 -268h-207l-95 146l-98 -146h-205l201 278l-184 258h207l89 -138l92 138h203z" />
    <glyph glyph-name="y" unicode="y" horiz-adv-x="552" 
d="M2 536h176l96 -295h2l99 295h175l-302 -783l-145 56l86 228z" />
    <glyph glyph-name="z" unicode="z" horiz-adv-x="494" 
d="M47 75l192 329h-203v132h415v-74l-195 -330h211v-132h-420v75z" />
    <glyph glyph-name="braceleft" unicode="{" horiz-adv-x="356" 
d="M6 246l2.00293 117c48.667 11.333 73 49.333 73 114v69c0 62 18.667 112.667 56 152s86.666 59 147.999 59c11.333 0 32.333 -1.33301 63 -4v-121h-44c-49.333 0 -74 -36.333 -74 -109v-71c0 -72 -20.667 -121 -62 -147c20.667 -14 36.167 -34.333 46.5 -61
s15.5 -55.334 15.5 -86.001v-91c0 -72.667 25.667 -109 77 -109h41v-121c-30.667 -3.33301 -51.667 -5 -63 -5c-60.667 0 -109.834 19.833 -147.501 59.5s-56.5 90.167 -56.5 151.5v101c0 26 -6.33301 48.333 -19 67s-31.334 30.334 -56.001 35.001z" />
    <glyph glyph-name="bar" unicode="|" horiz-adv-x="326" 
d="M236 -170h-146v1028h146v-1028z" />
    <glyph glyph-name="braceright" unicode="}" horiz-adv-x="356" 
d="M348 363l2.00293 -117c-24.667 -4.66699 -43.334 -16.334 -56.001 -35.001s-19 -41 -19 -67v-101c0 -61.333 -18.833 -111.833 -56.5 -151.5s-86.834 -59.5 -147.501 -59.5c-11.333 0 -32.333 1.66699 -63 5v121h41c51.333 0 77 36.333 77 109v91
c0 30.667 5.16699 59.334 15.5 86.001s25.833 47 46.5 61c-41.333 26 -62 75 -62 147v71c0 72.667 -24.667 109 -74 109h-44v121c30.667 2.66699 51.667 4 63 4c61.333 0 110.666 -19.667 147.999 -59s56 -90 56 -152v-69c0 -64.667 24.333 -102.667 73 -114z" />
    <glyph glyph-name="asciitilde" unicode="~" 
d="M414 399l122 4c0.666992 -3.33301 1 -8.33301 1 -15c0 -48 -13.833 -87 -41.5 -117s-64.5 -45 -110.5 -45c-44.667 0 -88 15.667 -130 47l-14 10.5c-6.66699 5 -11.5 8.66699 -14.5 11s-7.33301 5.16602 -13 8.49902s-10.5 5.83301 -14.5 7.5s-8.5 3.16699 -13.5 4.5
s-9.83301 2 -14.5 2c-11.333 0 -20.166 -4 -26.499 -12s-9.5 -18.333 -9.5 -31c0 -4.66699 0.333008 -8 1 -10l-122 -4c-0.666992 3.33301 -1 8.33301 -1 15c0 48 13.833 87 41.5 117s64.5 45 110.5 45c44.667 0 88 -15.667 130 -47l14 -10.5
c6.66699 -5 11.5 -8.66699 14.5 -11s7.33301 -5.16602 13 -8.49902s10.5 -5.83301 14.5 -7.5s8.5 -3.16699 13.5 -4.5s9.83301 -2 14.5 -2c11.333 0 20.166 4 26.499 12s9.5 18.333 9.5 31c0 4.66699 -0.333008 8 -1 10z" />
    <glyph glyph-name="uni00A0" unicode="&#xa0;" horiz-adv-x="250" 
 />
    <glyph glyph-name="exclamdown" unicode="&#xa1;" horiz-adv-x="331" 
d="M78 -164v130l11 320h153l11 -320v-130h-175zM80 536h171v-162h-171v162z" />
    <glyph glyph-name="cent" unicode="&#xa2;" 
d="M433 195l88 -107.001c-40.667 -37.333 -90 -60 -148 -68v-90h-92v89c-70 8.66699 -126.333 38.334 -169 89.001s-64 113.667 -64 189c0 72 21.333 133.833 64 185.5s99 82.167 169 91.5v92h92v-93c55.333 -8 105.666 -31 150.999 -69l-84 -109c-32 30.667 -66 46 -102 46
c-37.333 0 -67.666 -14 -90.999 -42s-35 -62 -35 -102s11.667 -74 35 -102s52.333 -42 87 -42c38.667 0 71.667 14 99 42z" />
    <glyph glyph-name="sterling" unicode="&#xa3;" 
d="M517 0h-447.999v134h53v157h-53v134h53v21c0 67.333 21 122.833 63 166.5s95.333 65.5 160 65.5c61.333 0 121 -17.667 179 -53l-61 -119c-32.667 25.333 -65.334 38 -98.001 38c-25.333 0 -46 -8.66699 -62 -26s-24 -43 -24 -77v-16h125v-134h-125v-157h238v-134z" />
    <glyph glyph-name="currency" unicode="&#xa4;" 
d="M55 326c0 36.667 8.33203 70.999 24.999 102.999l-60 61l92 92l61 -61c31.333 16.667 65.333 25 102 25c36 0 70 -8.33301 102 -25l61 61l92 -92l-61 -61c17.333 -31.333 26 -65.666 26 -102.999c0 -36.667 -8.33301 -70.667 -25 -102l60 -60l-92 -92l-60 60
c-31.333 -17.333 -65.666 -26 -102.999 -26s-72 8.33301 -104 25l-59 -59l-92 92l59 60c-16 30 -24 64 -24 102zM170.999 325.999c0 -29.333 10.167 -54 30.5 -74s44.833 -30 73.5 -30s53.167 10.167 73.5 30.5s30.5 44.833 30.5 73.5s-10.167 53.167 -30.5 73.5
s-44.833 30.5 -73.5 30.5s-53.167 -10.167 -73.5 -30.5s-30.5 -44.833 -30.5 -73.5z" />
    <glyph glyph-name="yen" unicode="&#xa5;" 
d="M36 257v102h118l-171 307h179l116 -211h2l108 211h179l-175 -307h118v-102h-159v-52h159v-101h-159v-104h-157v104h-158v101h158v52h-158z" />
    <glyph glyph-name="brokenbar" unicode="&#xa6;" horiz-adv-x="326" 
d="M236 -190h-146v405h146v-405zM236 345h-146v405h146v-405z" />
    <glyph glyph-name="section" unicode="&#xa7;" 
d="M483 631l-95.0039 -93.999c-32 32 -70 48 -114 48c-13.333 0 -25.166 -3.66699 -35.499 -11s-15.5 -16.666 -15.5 -27.999c0 -15.333 8.83301 -27.833 26.5 -37.5s44.5 -20.167 80.5 -31.5c2.66699 -0.666992 4.83398 -1.16699 6.50098 -1.5s3.83398 -1 6.50098 -2
s5 -1.83301 7 -2.5c25.333 -8.66699 46.666 -17 63.999 -25s35.5 -18.833 54.5 -32.5s33.5 -30.5 43.5 -50.5s15 -42.667 15 -68c0 -52.667 -26.667 -99.334 -80 -140.001c30.667 -29.333 46 -65 46 -107c0 -58 -21.833 -103.833 -65.5 -137.5s-96.167 -50.5 -157.5 -50.5
c-94.667 0 -179 33.333 -253 100l95 101c46 -46.667 96 -70 150 -70c18.667 0 35.5 3.66699 50.5 11s22.5 19 22.5 35c0 17.333 -8.33301 30.666 -25 39.999s-43 19.333 -79 30c-18.667 5.33301 -31.667 9.16602 -39 11.499s-19.666 6.83301 -36.999 13.5
s-30.166 12.5 -38.499 17.5s-18.666 12.167 -30.999 21.5s-21.5 19 -27.5 29s-11.333 22.167 -16 36.5s-7 29.833 -7 46.5c0 62.667 26.667 110.667 80 144c-30.667 29.333 -46 66 -46 110c0 52.667 20 94.834 60 126.501s87.667 47.5 143 47.5
c85.333 0 155.666 -26.667 210.999 -80zM318.996 220.001c32 14.667 48 36.333 48 65c0 6.66699 -2.16699 12.667 -6.5 18s-12.166 10.833 -23.499 16.5s-21.5 10.334 -30.5 14.001s-23.833 9.16699 -44.5 16.5c-10.667 4 -19 7 -25 9c-28.667 -12 -43 -33 -43 -63
c0 -16 9 -28.833 27 -38.5s48.333 -21.5 91 -35.5c3.33301 -0.666992 5.66602 -1.33398 6.99902 -2.00098z" />
    <glyph glyph-name="dieresis" unicode="&#xa8;" horiz-adv-x="360" 
d="M133 600h-162v128h162v-128zM389 600h-162v128h162v-128z" />
    <glyph glyph-name="copyright" unicode="&#xa9;" horiz-adv-x="814" 
d="M50 333c0 94.667 35.167 175.834 105.5 243.501s154.166 101.5 251.499 101.5s181.166 -33.833 251.499 -101.5s105.5 -148.834 105.5 -243.501s-35.167 -175.834 -105.5 -243.501s-154.166 -101.5 -251.499 -101.5s-181.166 33.833 -251.499 101.5
s-105.5 148.834 -105.5 243.501zM167 333c0 -66.667 23.5 -124 70.5 -172s103.5 -72 169.5 -72s122.5 24 169.5 72s70.5 105.333 70.5 172s-23.5 124 -70.5 172s-103.5 72 -169.5 72s-122.5 -24 -169.5 -72s-70.5 -105.333 -70.5 -172zM534 470l-51 -69.999
c-16.667 16 -39 24 -67 24c-24 0 -43.833 -9 -59.5 -27s-23.5 -40.333 -23.5 -67c0 -29.333 7 -52.333 21 -69s34.667 -25 62 -25c24.667 0 47.334 8.66699 68.001 26l54 -63c-34 -34 -74.667 -51 -122 -51c-55.333 0 -100.666 16.667 -135.999 50s-53 77.333 -53 132
c0 51.333 18.167 94.666 54.5 129.999s81.166 53 134.499 53c41.333 0 80.666 -14.333 117.999 -43z" />
    <glyph glyph-name="ordfeminine" unicode="&#xaa;" horiz-adv-x="392" 
d="M350 587l-0.000976562 -201h-100l-7 24c-21.333 -21.333 -52.333 -32 -93 -32c-32 0 -60.167 9.5 -84.5 28.5s-36.5 44.833 -36.5 77.5c0 39.333 14.5 68 43.5 86s64.5 27 106.5 27c16.667 0 35 -1.66699 55 -5v2c-2 35.333 -23.667 53 -65 53
c-33.333 0 -65.666 -11.333 -96.999 -34l-28 82c50 26 100 39 150 39c46 0 83.5 -12 112.5 -36s43.5 -61 43.5 -111zM233.999 471v59c-10 2 -19.333 3 -28 3c-16.667 0 -30.667 -3.66699 -42 -11s-17 -18 -17 -32c0 -23.333 14 -35 42 -35c19.333 0 34.333 5.33301 45 16z
" />
    <glyph glyph-name="guillemotleft" unicode="&#xab;" horiz-adv-x="611" 
d="M309 326l167 175l90 -112l-126 -120l126 -120l-90 -112l-167 175v114zM45 326l167 175l90 -112l-126 -120l126 -120l-90 -112l-167 175v114z" />
    <glyph glyph-name="logicalnot" unicode="&#xac;" 
d="M16 442h517v-327h-136v191h-381v136z" />
    <glyph glyph-name="uni00AD" unicode="&#xad;" horiz-adv-x="442" 
d="M367 228h-292v132h292v-132z" />
    <glyph glyph-name="registered" unicode="&#xae;" horiz-adv-x="575" 
d="M38 472c0 67.333 24.5 125 73.5 173s107.833 72 176.5 72s127.5 -24 176.5 -72s73.5 -105.667 73.5 -173s-24.5 -125 -73.5 -173s-107.833 -72 -176.5 -72s-127.5 24 -176.5 72s-73.5 105.667 -73.5 173zM126 472c0 -46 15.833 -85.167 47.5 -117.5
s69.834 -48.5 114.501 -48.5s82.834 16.167 114.501 48.5s47.5 71.5 47.5 117.5s-15.833 85.167 -47.5 117.5s-69.834 48.5 -114.501 48.5s-82.834 -16.167 -114.501 -48.5s-47.5 -71.5 -47.5 -117.5zM401 360l-86 -0.000976562l-43 71h-1v-71h-69v231h80c12 0 24 -2 36 -6
c36 -11.333 54 -34 54 -68c0 -29.333 -13.667 -50.666 -41 -63.999zM271 534.999v-41.001c11.333 0 19 1 23 3c6 3.33301 9 9 9 17c0 10.667 -4 17.334 -12 20.001c-2 0.666992 -8.66699 1 -20 1z" />
    <glyph glyph-name="macron" unicode="&#xaf;" horiz-adv-x="360" 
d="M360 610h-360v108h360v-108z" />
    <glyph glyph-name="degree" unicode="&#xb0;" horiz-adv-x="454" 
d="M168 528c0 -17.333 5.66699 -31.5 17 -42.5s25.333 -16.5 42 -16.5s30.667 5.5 42 16.5s17 25.167 17 42.5s-5.66699 31.5 -17 42.5s-25.333 16.5 -42 16.5s-30.667 -5.5 -42 -16.5s-17 -25.167 -17 -42.5zM60 528c0 46 16.333 85.333 49 118s72 49 118 49
s85.333 -16.333 118 -49s49 -72 49 -118c0 -46.667 -16.333 -86.167 -49 -118.5s-72 -48.5 -118 -48.5s-85.333 16.167 -118 48.5s-49 71.833 -49 118.5z" />
    <glyph glyph-name="plusminus" unicode="&#xb1;" 
d="M342 704v-190h191v-136h-191v-191h-136v191h-190v136h190v190h136zM16 136h517v-136h-517v136z" />
    <glyph glyph-name="twosuperior" unicode="&#xb2;" horiz-adv-x="336" 
d="M21 447c58 46 105.001 90.332 141.001 132.999c21.333 26.667 32 50.667 32 72c0 25.333 -10.333 38 -31 38c-21.333 0 -32 -18 -32 -54l-116 13c0.666992 38.667 14.667 69.334 42 92.001s61 34 101 34c42 0 78.167 -10.333 108.5 -31s45.5 -49 45.5 -85
c0 -40 -13.333 -75.333 -40 -106c-32.667 -38.667 -70.334 -73 -113.001 -103h162v-83h-300v80z" />
    <glyph glyph-name="threesuperior" unicode="&#xb3;" horiz-adv-x="358" 
d="M120 534l-0.00195312 74.999c11.333 -1.33301 26 -0.333008 44 3c24 5.33301 36 18 36 38c0 11.333 -3.66699 20.833 -11 28.5s-17.666 11.5 -30.999 11.5c-23.333 0 -40 -13 -50 -39l-87 41c10 26.667 27.667 47.167 53 61.5s54 21.5 86 21.5
c42.667 0 79.334 -9.66699 110.001 -29s46 -45 46 -77c0 -39.333 -20 -69 -60 -89c52.667 -15.333 79 -49.333 79 -102c0 -35.333 -15.667 -64 -47 -86s-70 -33 -116 -33c-35.333 0 -68 8 -98 24s-50.333 38.333 -61 67l88 40c14.667 -30.667 35.334 -46 62.001 -46
c16 0 28.833 4.33301 38.5 13s14.5 19 14.5 31c0 14.667 -6.33301 26.334 -19 35.001s-28.334 13 -47.001 13c-8 0 -18 -0.666992 -30 -2z" />
    <glyph glyph-name="acute" unicode="&#xb4;" horiz-adv-x="360" 
d="M348 759l-152 -177l-92 70l137 192z" />
    <glyph glyph-name="mu" unicode="&#xb5;" 
d="M389 0l-15.002 68c-40.667 -53.333 -95 -80 -163 -80c-5.33301 0 -13.333 0.666992 -24 2v-240h-162v786h162v-277c0 -16 0.166992 -28.667 0.5 -38s1.83301 -21 4.5 -35s6.5 -24.833 11.5 -32.5s12.5 -14.5 22.5 -20.5s22.333 -9 37 -9
c18.667 0 37.334 4.83301 56.001 14.5s33.334 23.167 44.001 40.5v357h162v-536h-136z" />
    <glyph glyph-name="paragraph" unicode="&#xb6;" 
d="M517 -175h-130v875h130v-875zM344 -175h-130v440c-56 12 -101.833 35.5 -137.5 70.5s-53.5 83.167 -53.5 144.5c0 38.667 8 72.667 24 102s37.167 52.333 63.5 69s54.5 29 84.5 37s61 12 93 12h56v-875zM214 565c-17.333 0 -32.166 -7.83301 -44.499 -23.5
s-18.5 -36.167 -18.5 -61.5s6.16699 -45.833 18.5 -61.5s27.166 -23.5 44.499 -23.5v170z" />
    <glyph glyph-name="periodcentered" unicode="&#xb7;" horiz-adv-x="250" 
d="M210 239h-171v162h171v-162z" />
    <glyph glyph-name="cedilla" unicode="&#xb8;" horiz-adv-x="400" 
d="M179 12l-27.9971 -71h1c13.333 10 28.666 15 45.999 15c25.333 0 47.666 -10 66.999 -30s29 -44.667 29 -74c0 -30 -11.333 -56.333 -34 -79s-50.334 -34 -83.001 -34c-52.667 0 -92.667 24.667 -120 74l73 34c9.33301 -21.333 22 -32 38 -32
c10.667 0 19.167 3.33301 25.5 10s9.5 15 9.5 25s-3.33301 18.667 -10 26s-14.667 11 -24 11c-15.333 0 -27.333 -6 -36 -18l-78 39l52 117z" />
    <glyph glyph-name="onesuperior" unicode="&#xb9;" horiz-adv-x="234" 
d="M193 367h-116.001v280c-25.333 -10.667 -43.666 -18 -54.999 -22v93c28 12.667 59.333 29 94 49h77v-400z" />
    <glyph glyph-name="ordmasculine" unicode="&#xba;" horiz-adv-x="414" 
d="M207 734c54.667 0 99.334 -16.833 134.001 -50.5s52 -76.167 52 -127.5s-17.333 -93.833 -52 -127.5s-79.334 -50.5 -134.001 -50.5s-99.334 16.833 -134.001 50.5s-52 76.167 -52 127.5s17.333 93.833 52 127.5s79.334 50.5 134.001 50.5zM275 556
c0 26.667 -6.16699 48.5 -18.5 65.5s-28.833 25.5 -49.5 25.5s-37.167 -8.5 -49.5 -25.5s-18.5 -38.833 -18.5 -65.5s6.16699 -48.5 18.5 -65.5s28.833 -25.5 49.5 -25.5s37.167 8.5 49.5 25.5s18.5 38.833 18.5 65.5z" />
    <glyph glyph-name="guillemotright" unicode="&#xbb;" horiz-adv-x="611" 
d="M135 501l167 -175v-114l-167 -175l-90 112l126 120l-126 120zM399 501l167 -175v-114l-167 -175l-90 112l126 120l-126 120z" />
    <glyph glyph-name="onequarter" unicode="&#xbc;" horiz-adv-x="823" 
d="M598 720l77 -57l-499 -683l-77 57zM247 338h-108v248c-24 -12.667 -43.667 -21.667 -59 -27v100c22 10 49 23.667 81 41h86v-362zM437 164l150 198h112v-201h44v-86h-44v-75h-106v75h-156v89zM593 161v80.001c-16 -24.667 -34.667 -51.334 -56 -80.001h56z" />
    <glyph glyph-name="onehalf" unicode="&#xbd;" horiz-adv-x="850" 
d="M598 720l77 -57l-499 -683l-77 57zM247 338h-108v248c-24 -12.667 -43.667 -21.667 -59 -27v100c22 10 49 23.667 81 41h86v-362zM497 73c57.333 46 100 85.666 128 118.999c19.333 22.667 29 44.667 29 66c0 18.667 -9.66699 28 -29 28
c-9.33301 0 -16.833 -3.66699 -22.5 -11s-8.5 -17 -8.5 -29l-102 16c1.33301 34.667 14.5 61.334 39.5 80.001s56.5 28 94.5 28c36.667 0 68.5 -9.66699 95.5 -29s40.5 -45 40.5 -77c0 -34 -12.667 -66.333 -38 -97c-22 -26 -50.333 -52.333 -85 -79h131v-88h-273v73z" />
    <glyph glyph-name="threequarters" unicode="&#xbe;" horiz-adv-x="906" 
d="M681 720l77 -57l-499 -683l-77 57zM178 485l-1.00098 74c12 -0.666992 24 0.333008 36 3c18.667 4 28 14.667 28 32c0 20 -11.667 30 -35 30c-21.333 0 -33.333 -10 -36 -30l-83 39c8.66699 24 24.334 42.5 47.001 55.5s48 19.5 76 19.5c37.333 0 69.5 -8.66699 96.5 -26
s40.5 -40.666 40.5 -69.999c0 -15.333 -4.5 -30.5 -13.5 -45.5s-21.167 -26.5 -36.5 -34.5c20 -6.66699 36.167 -18.5 48.5 -35.5s18.5 -35.5 18.5 -55.5c0 -34.667 -14.333 -61.834 -43 -81.501s-62 -29.5 -100 -29.5c-69.333 0 -116.333 27.333 -141 82l84 38
c8.66699 -24 26 -36 52 -36c10.667 0 20 2.83301 28 8.5s12 14.167 12 25.5c0 26 -19 39 -57 39c-6 0 -13 -0.666992 -21 -2zM519.999 164l150 198h112v-201h44v-86h-44v-75h-106v75h-156v89zM675.999 161v80.001c-16 -24.667 -34.667 -51.334 -56 -80.001h56z" />
    <glyph glyph-name="questiondown" unicode="&#xbf;" horiz-adv-x="547" 
d="M197 286l162.999 0.00195312v-146c-54 -18 -92.333 -35.333 -115 -52c-22 -16 -33 -38 -33 -66c0 -18.667 5 -34.334 15 -47.001s25 -19 45 -19s35.333 6.5 46 19.5s16 31.5 16 55.5v25h157v-21c0 -63.333 -20.5 -114.333 -61.5 -153s-93.5 -58 -157.5 -58
c-64.667 0 -117 20 -157 60s-60 85 -60 135c0 63.333 20.667 113 62 149c16.667 15.333 43.334 32.666 80.001 51.999v66zM192.999 536.002h171v-162h-171v162z" />
    <glyph glyph-name="Agrave" unicode="&#xc0;" horiz-adv-x="703" 
d="M692 0h-186l-41 123h-231l-44 -123h-179l291 700h129zM353 454l-72 -202h140l-67 202h-1zM359 731l-185 128l82 109l175 -147z" />
    <glyph glyph-name="Aacute" unicode="&#xc1;" horiz-adv-x="703" 
d="M692 0h-186l-41 123h-231l-44 -123h-179l291 700h129zM353 454l-72 -202h140l-67 202h-1zM510 859l-185 -128l-72 90l175 147z" />
    <glyph glyph-name="Acircumflex" unicode="&#xc2;" horiz-adv-x="703" 
d="M692 0h-186l-41 123h-231l-44 -123h-179l291 700h129zM353 454l-72 -202h140l-67 202h-1zM280 949h176l111 -146l-93 -67l-109 119l-111 -119l-91 67z" />
    <glyph glyph-name="Atilde" unicode="&#xc3;" horiz-adv-x="703" 
d="M692 0h-186l-41 123h-231l-44 -123h-179l291 700h129zM353 454l-72 -202h140l-67 202h-1zM562 889c4.66699 -14.667 7 -29.333 7 -44c0 -32 -11 -57.667 -33 -77s-51.333 -29 -88 -29c-24.667 0 -54.334 8 -89.001 24c-32 14.667 -50.667 22 -56 22
c-14.667 0 -22 -6.66699 -22 -20c0 -2.66699 0.333008 -4.66699 1 -6l-88 -10c-5.33301 17.333 -8 32 -8 44c0 31.333 11 56.833 33 76.5s51.667 29.5 89 29.5c24.667 0 54.334 -8 89.001 -24c32 -14.667 50.667 -22 56 -22c14.667 0 22 6.66699 22 20
c0 2.66699 -0.333008 4.66699 -1 6z" />
    <glyph glyph-name="Adieresis" unicode="&#xc4;" horiz-adv-x="703" 
d="M692 0h-186l-41 123h-231l-44 -123h-179l291 700h129zM353 454l-72 -202h140l-67 202h-1zM311 761h-167v124h167v-124zM590 761h-167v124h167v-124z" />
    <glyph glyph-name="Aring" unicode="&#xc5;" horiz-adv-x="703" 
d="M692 0h-186l-41 123h-231l-44 -123h-179l291 700h129zM353 454l-72 -202h140l-67 202h-1zM246 834c0 33.333 11.833 61.833 35.5 85.5s52.167 35.5 85.5 35.5s61.833 -11.833 85.5 -35.5s35.5 -52.167 35.5 -85.5s-11.833 -61.833 -35.5 -85.5s-52.167 -35.5 -85.5 -35.5
s-61.833 11.833 -85.5 35.5s-35.5 52.167 -35.5 85.5zM321 834c0 -13.333 4.5 -24.333 13.5 -33s19.833 -13 32.5 -13s23.5 4.33301 32.5 13s13.5 19.667 13.5 33s-4.5 24.333 -13.5 33s-19.833 13 -32.5 13s-23.5 -4.33301 -32.5 -13s-13.5 -19.667 -13.5 -33z" />
    <glyph glyph-name="AE" unicode="&#xc6;" horiz-adv-x="1018" 
d="M969 0h-460v124h-232l-82 -124h-203l517 700h460v-134h-298v-139h298v-134h-298v-159h298v-134zM363 253h146v220z" />
    <glyph glyph-name="Ccedilla" unicode="&#xc7;" horiz-adv-x="675" 
d="M642 638l-77.9971 -125.001c-47.333 39.333 -96.333 59 -147 59c-57.333 0 -105 -21.5 -143 -64.5s-57 -95.5 -57 -157.5c0 -66 17.5 -119.5 52.5 -160.5s83.833 -61.5 146.5 -61.5c55.333 0 104.333 20.333 147 61l92 -116c-72.667 -56.667 -154.667 -85 -246 -85
c-15.333 0 -30.666 1 -45.999 3l-19 -50h1c13.333 10 28.666 15 45.999 15c25.333 0 47.666 -10 66.999 -30s29 -44.667 29 -74c0 -30 -11.333 -56.333 -34 -79s-50.334 -34 -83.001 -34c-52.667 0 -92.667 24.667 -120 74l73 34c9.33301 -21.333 22 -32 38 -32
c10.667 0 19.167 3.33301 25.5 10s9.5 15 9.5 25s-3.33301 18.667 -10 26s-14.667 11 -24 11c-15.333 0 -27.333 -6 -36 -18l-78 39l43 97c-74.667 22.667 -134.334 64.834 -179.001 126.501s-67 134.5 -67 218.5c0 101.333 36.167 187 108.5 257s159.833 105 262.5 105
c72.667 0 148 -24.667 226 -74z" />
    <glyph glyph-name="Egrave" unicode="&#xc8;" horiz-adv-x="580" 
d="M531 0h-460v700h460v-134h-298v-139h298v-134h-298v-159h298v-134zM351 731l-185 128l82 109l175 -147z" />
    <glyph glyph-name="Eacute" unicode="&#xc9;" horiz-adv-x="580" 
d="M531 0h-460v700h460v-134h-298v-139h298v-134h-298v-159h298v-134zM476 859l-185 -128l-72 90l175 147z" />
    <glyph glyph-name="Ecircumflex" unicode="&#xca;" horiz-adv-x="580" 
d="M531 0h-460v700h460v-134h-298v-139h298v-134h-298v-159h298v-134zM222 949h176l111 -146l-93 -67l-109 119l-111 -119l-91 67z" />
    <glyph glyph-name="Edieresis" unicode="&#xcb;" horiz-adv-x="580" 
d="M272 761h-167v124h167v-124zM511 761h-167v124h167v-124zM531 0h-460v700h460v-134h-298v-139h298v-134h-298v-159h298v-134z" />
    <glyph glyph-name="Igrave" unicode="&#xcc;" horiz-adv-x="304" 
d="M233 0h-162v700h162v-700zM145 731l-185 128l82 109l175 -147z" />
    <glyph glyph-name="Iacute" unicode="&#xcd;" horiz-adv-x="304" 
d="M233 0h-162v700h162v-700zM344 859l-185 -128l-72 90l175 147z" />
    <glyph glyph-name="Icircumflex" unicode="&#xce;" horiz-adv-x="304" 
d="M233 0h-162v700h162v-700zM66 949h176l111 -146l-93 -67l-109 119l-111 -119l-91 67z" />
    <glyph glyph-name="Idieresis" unicode="&#xcf;" horiz-adv-x="304" 
d="M119 761h-167v124h167v-124zM352 761h-167v124h167v-124zM233 0h-162v700h162v-700z" />
    <glyph glyph-name="Eth" unicode="&#xd0;" horiz-adv-x="713" 
d="M71 700h210.001c48 0 94 -6.5 138 -19.5s85 -32.5 123 -58.5s68.5 -62.167 91.5 -108.5s34.5 -99.833 34.5 -160.5c0 -62 -11.333 -116.5 -34 -163.5s-53.334 -83.833 -92.001 -110.5s-80.667 -46.5 -126 -59.5s-93.333 -19.5 -144 -19.5h-201v310h-65v105h65v285z
M233.001 566l-0.000976562 -151h110v-105h-110v-176h9c169.333 0 254 70 254 210c0 72 -20.167 127 -60.5 165s-97.166 57 -170.499 57h-32z" />
    <glyph glyph-name="Ntilde" unicode="&#xd1;" horiz-adv-x="746" 
d="M675 0h-146l-296 406v-406h-162v700h143l299 -408v408h162v-700zM572 889c4.66699 -14.667 7 -29.333 7 -44c0 -32 -11 -57.667 -33 -77s-51.333 -29 -88 -29c-24.667 0 -54.334 8 -89.001 24c-32 14.667 -50.667 22 -56 22c-14.667 0 -22 -6.66699 -22 -20
c0 -2.66699 0.333008 -4.66699 1 -6l-88 -10c-5.33301 17.333 -8 32 -8 44c0 31.333 11 56.833 33 76.5s51.667 29.5 89 29.5c24.667 0 54.334 -8 89.001 -24c32 -14.667 50.667 -22 56 -22c14.667 0 22 6.66699 22 20c0 2.66699 -0.333008 4.66699 -1 6z" />
    <glyph glyph-name="Ograve" unicode="&#xd2;" horiz-adv-x="828" 
d="M611 350c0 62.667 -18.667 115.334 -56 158.001s-84.333 64 -141 64s-103.667 -21.333 -141 -64s-56 -95.334 -56 -158.001s18.667 -115.334 56 -158.001s84.333 -64 141 -64s103.667 21.333 141 64s56 95.334 56 158.001zM783 350
c0 -100.667 -35.5 -186.167 -106.5 -256.5s-158.5 -105.5 -262.5 -105.5s-191.5 35.167 -262.5 105.5s-106.5 155.833 -106.5 256.5s35.5 186.167 106.5 256.5s158.5 105.5 262.5 105.5s191.5 -35.167 262.5 -105.5s106.5 -155.833 106.5 -256.5zM411 731l-185 128l82 109
l175 -147z" />
    <glyph glyph-name="Oacute" unicode="&#xd3;" horiz-adv-x="828" 
d="M611 350c0 62.667 -18.667 115.334 -56 158.001s-84.333 64 -141 64s-103.667 -21.333 -141 -64s-56 -95.334 -56 -158.001s18.667 -115.334 56 -158.001s84.333 -64 141 -64s103.667 21.333 141 64s56 95.334 56 158.001zM783 350
c0 -100.667 -35.5 -186.167 -106.5 -256.5s-158.5 -105.5 -262.5 -105.5s-191.5 35.167 -262.5 105.5s-106.5 155.833 -106.5 256.5s35.5 186.167 106.5 256.5s158.5 105.5 262.5 105.5s191.5 -35.167 262.5 -105.5s106.5 -155.833 106.5 -256.5zM606 859l-185 -128l-72 90
l175 147z" />
    <glyph glyph-name="Ocircumflex" unicode="&#xd4;" horiz-adv-x="828" 
d="M611 350c0 62.667 -18.667 115.334 -56 158.001s-84.333 64 -141 64s-103.667 -21.333 -141 -64s-56 -95.334 -56 -158.001s18.667 -115.334 56 -158.001s84.333 -64 141 -64s103.667 21.333 141 64s56 95.334 56 158.001zM783 350
c0 -100.667 -35.5 -186.167 -106.5 -256.5s-158.5 -105.5 -262.5 -105.5s-191.5 35.167 -262.5 105.5s-106.5 155.833 -106.5 256.5s35.5 186.167 106.5 256.5s158.5 105.5 262.5 105.5s191.5 -35.167 262.5 -105.5s106.5 -155.833 106.5 -256.5zM332 949h176l111 -146
l-93 -67l-109 119l-111 -119l-91 67z" />
    <glyph glyph-name="Otilde" unicode="&#xd5;" horiz-adv-x="828" 
d="M611 350c0 62.667 -18.667 115.334 -56 158.001s-84.333 64 -141 64s-103.667 -21.333 -141 -64s-56 -95.334 -56 -158.001s18.667 -115.334 56 -158.001s84.333 -64 141 -64s103.667 21.333 141 64s56 95.334 56 158.001zM783 350
c0 -100.667 -35.5 -186.167 -106.5 -256.5s-158.5 -105.5 -262.5 -105.5s-191.5 35.167 -262.5 105.5s-106.5 155.833 -106.5 256.5s35.5 186.167 106.5 256.5s158.5 105.5 262.5 105.5s191.5 -35.167 262.5 -105.5s106.5 -155.833 106.5 -256.5zM617 889
c4.66699 -14.667 7 -29.333 7 -44c0 -32 -11 -57.667 -33 -77s-51.333 -29 -88 -29c-24.667 0 -54.334 8 -89.001 24c-32 14.667 -50.667 22 -56 22c-14.667 0 -22 -6.66699 -22 -20c0 -2.66699 0.333008 -4.66699 1 -6l-88 -10c-5.33301 17.333 -8 32 -8 44
c0 31.333 11 56.833 33 76.5s51.667 29.5 89 29.5c24.667 0 54.334 -8 89.001 -24c32 -14.667 50.667 -22 56 -22c14.667 0 22 6.66699 22 20c0 2.66699 -0.333008 4.66699 -1 6z" />
    <glyph glyph-name="Odieresis" unicode="&#xd6;" horiz-adv-x="828" 
d="M611 350c0 62.667 -18.667 115.334 -56 158.001s-84.333 64 -141 64s-103.667 -21.333 -141 -64s-56 -95.334 -56 -158.001s18.667 -115.334 56 -158.001s84.333 -64 141 -64s103.667 21.333 141 64s56 95.334 56 158.001zM783 350
c0 -100.667 -35.5 -186.167 -106.5 -256.5s-158.5 -105.5 -262.5 -105.5s-191.5 35.167 -262.5 105.5s-106.5 155.833 -106.5 256.5s35.5 186.167 106.5 256.5s158.5 105.5 262.5 105.5s191.5 -35.167 262.5 -105.5s106.5 -155.833 106.5 -256.5zM358 761h-167v124h167v-124
zM637 761h-167v124h167v-124z" />
    <glyph glyph-name="multiply" unicode="&#xd7;" 
d="M500 182l-96 -96l-130 129l-129 -129l-96 96l129 129l-129 129l97 97l128 -129l129 129l96 -97l-128 -128z" />
    <glyph glyph-name="Oslash" unicode="&#xd8;" horiz-adv-x="828" 
d="M697 662l-31.001 -46.002c36.667 -33.333 65.334 -73.166 86.001 -119.499s31 -95.166 31 -146.499c0 -100.667 -35.5 -186.167 -106.5 -256.5s-158.5 -105.5 -262.5 -105.5c-53.333 0 -103.666 10 -150.999 30l-34 -50l-103 68l33 50c-76 70.667 -114 158.667 -114 264
c0 100.667 35.5 186.167 106.5 256.5s158.5 105.5 262.5 105.5c51.333 0 100.666 -10 147.999 -30l32 48zM574.999 480.998l-230 -341.002c20.667 -8 43.667 -12 69 -12c56.667 0 103.667 21.333 141 64s56 95.334 56 158.001c0 48.667 -12 92.334 -36 131.001z
M478.999 559.996c-20 8 -41.667 12.001 -65 12.001c-56.667 0 -103.667 -21.333 -141 -64s-56 -95.334 -56 -158.001c0 -48 11.333 -90.667 34 -128z" />
    <glyph glyph-name="Ugrave" unicode="&#xd9;" horiz-adv-x="714" 
d="M643 330c0 -112.667 -23.168 -197.833 -69.501 -255.5s-119.166 -86.5 -218.499 -86.5c-189.333 0 -284 114 -284 342v370h162v-387c0 -61.333 11 -107.5 33 -138.5s52.333 -46.5 91 -46.5s69 15.5 91 46.5s33 77.167 33 138.5v387h162v-370zM349.999 731.001l-185 128
l82 109l175 -147z" />
    <glyph glyph-name="Uacute" unicode="&#xda;" horiz-adv-x="714" 
d="M643 330c0 -112.667 -23.168 -197.833 -69.501 -255.5s-119.166 -86.5 -218.499 -86.5c-189.333 0 -284 114 -284 342v370h162v-387c0 -61.333 11 -107.5 33 -138.5s52.333 -46.5 91 -46.5s69 15.5 91 46.5s33 77.167 33 138.5v387h162v-370zM525.999 859.001l-185 -128
l-72 90l175 147z" />
    <glyph glyph-name="Ucircumflex" unicode="&#xdb;" horiz-adv-x="714" 
d="M643 330c0 -112.667 -23.168 -197.833 -69.501 -255.5s-119.166 -86.5 -218.499 -86.5c-189.333 0 -284 114 -284 342v370h162v-387c0 -61.333 11 -107.5 33 -138.5s52.333 -46.5 91 -46.5s69 15.5 91 46.5s33 77.167 33 138.5v387h162v-370zM271.999 949.001h176
l111 -146l-93 -67l-109 119l-111 -119l-91 67z" />
    <glyph glyph-name="Udieresis" unicode="&#xdc;" horiz-adv-x="714" 
d="M643 330c0 -112.667 -23.168 -197.833 -69.501 -255.5s-119.166 -86.5 -218.499 -86.5c-189.333 0 -284 114 -284 342v370h162v-387c0 -61.333 11 -107.5 33 -138.5s52.333 -46.5 91 -46.5s69 15.5 91 46.5s33 77.167 33 138.5v387h162v-370zM301.999 761.001h-167v124
h167v-124zM580.999 761.001h-167v124h167v-124z" />
    <glyph glyph-name="Yacute" unicode="&#xdd;" horiz-adv-x="628" 
d="M387 0h-162v291l-221 409h199l109 -236h2l122 236h188l-237 -415v-285zM495 859l-185 -128l-72 90l175 147z" />
    <glyph glyph-name="Thorn" unicode="&#xde;" horiz-adv-x="591" 
d="M71 700h162v-125h67c32 0 63.167 -4 93.5 -12s58.833 -20.333 85.5 -37s48.167 -39.667 64.5 -69s24.5 -63.333 24.5 -102s-8.16699 -73 -24.5 -103s-37.833 -53.333 -64.5 -70s-55.167 -29 -85.5 -37s-61.5 -12 -93.5 -12h-67v-143h-162v710zM233 441v-174h44
c79.333 0 119 28.333 119 85c0 27.333 -9.16699 49 -27.5 65s-42.5 24 -72.5 24h-63z" />
    <glyph glyph-name="germandbls" unicode="&#xdf;" horiz-adv-x="647" 
d="M217 0l-156.002 -0.000976562v532c0 71.333 24.167 127.5 72.5 168.5s107.833 61.5 178.5 61.5c66.667 0 123.834 -18 171.501 -54s71.5 -85.667 71.5 -149c0 -61.333 -21.667 -108.666 -65 -141.999c39.333 -15.333 70 -40.5 92 -75.5s33 -74.5 33 -118.5
c0 -67.333 -24.667 -123.333 -74 -168s-108 -67 -176 -67c-33.333 0 -64.333 6 -93 18l36 124c18.667 -6.66699 35.334 -10 50.001 -10c30 0 54 9.66699 72 29s27 44.333 27 75c0 36 -11.167 64.5 -33.5 85.5s-51.833 31.5 -88.5 31.5c-17.333 0 -35 -1.33301 -53 -4v125
c8 -0.666992 18.333 -1 31 -1c23.333 0 43.5 8.16699 60.5 24.5s25.5 37.833 25.5 64.5c0 23.333 -7.83301 42.5 -23.5 57.5s-35.5 22.5 -59.5 22.5c-66 0 -99 -38.667 -99 -116v-514z" />
    <glyph glyph-name="agrave" unicode="&#xe0;" horiz-adv-x="586" 
d="M527 0l-136 0.000976562l-15 42c-28 -36 -75 -54 -141 -54c-52.667 0 -98.167 15.833 -136.5 47.5s-57.5 73.5 -57.5 125.5c0 59.333 22.833 102.666 68.5 129.999s100.167 41 163.5 41c30 0 60.667 -3.66699 92 -11v4c0 32.667 -7.5 57.667 -22.5 75
s-40.167 26 -75.5 26c-44.667 0 -97.667 -15.333 -159 -46l-42 111c77.333 38 156.333 57 237 57c72.667 0 128.167 -20 166.5 -60s57.5 -95.667 57.5 -167v-321zM365 135.001l-0.000976562 95.001c-27.333 6 -48.666 9 -63.999 9c-28 0 -52 -6.33301 -72 -19
s-30 -32.334 -30 -59.001c0 -19.333 7.16699 -35 21.5 -47s31.5 -18 51.5 -18c34 0 65 13 93 39zM271.999 582.002l-152 177l107 85l137 -192z" />
    <glyph glyph-name="aacute" unicode="&#xe1;" horiz-adv-x="586" 
d="M527 0l-136 0.000976562l-15 42c-28 -36 -75 -54 -141 -54c-52.667 0 -98.167 15.833 -136.5 47.5s-57.5 73.5 -57.5 125.5c0 59.333 22.833 102.666 68.5 129.999s100.167 41 163.5 41c30 0 60.667 -3.66699 92 -11v4c0 32.667 -7.5 57.667 -22.5 75
s-40.167 26 -75.5 26c-44.667 0 -97.667 -15.333 -159 -46l-42 111c77.333 38 156.333 57 237 57c72.667 0 128.167 -20 166.5 -60s57.5 -95.667 57.5 -167v-321zM365 135.001l-0.000976562 95.001c-27.333 6 -48.666 9 -63.999 9c-28 0 -52 -6.33301 -72 -19
s-30 -32.334 -30 -59.001c0 -19.333 7.16699 -35 21.5 -47s31.5 -18 51.5 -18c34 0 65 13 93 39zM450.999 759.002l-152 -177l-92 70l137 192z" />
    <glyph glyph-name="acircumflex" unicode="&#xe2;" horiz-adv-x="586" 
d="M527 0l-136 0.000976562l-15 42c-28 -36 -75 -54 -141 -54c-52.667 0 -98.167 15.833 -136.5 47.5s-57.5 73.5 -57.5 125.5c0 59.333 22.833 102.666 68.5 129.999s100.167 41 163.5 41c30 0 60.667 -3.66699 92 -11v4c0 32.667 -7.5 57.667 -22.5 75
s-40.167 26 -75.5 26c-44.667 0 -97.667 -15.333 -159 -46l-42 111c77.333 38 156.333 57 237 57c72.667 0 128.167 -20 166.5 -60s57.5 -95.667 57.5 -167v-321zM365 135.001l-0.000976562 95.001c-27.333 6 -48.666 9 -63.999 9c-28 0 -52 -6.33301 -72 -19
s-30 -32.334 -30 -59.001c0 -19.333 7.16699 -35 21.5 -47s31.5 -18 51.5 -18c34 0 65 13 93 39zM201.999 819.002h162l115 -174l-88 -53l-110 132l-108 -132l-88 53z" />
    <glyph glyph-name="atilde" unicode="&#xe3;" horiz-adv-x="586" 
d="M527 0l-136 0.000976562l-15 42c-28 -36 -75 -54 -141 -54c-52.667 0 -98.167 15.833 -136.5 47.5s-57.5 73.5 -57.5 125.5c0 59.333 22.833 102.666 68.5 129.999s100.167 41 163.5 41c30 0 60.667 -3.66699 92 -11v4c0 32.667 -7.5 57.667 -22.5 75
s-40.167 26 -75.5 26c-44.667 0 -97.667 -15.333 -159 -46l-42 111c77.333 38 156.333 57 237 57c72.667 0 128.167 -20 166.5 -60s57.5 -95.667 57.5 -167v-321zM365 135.001l-0.000976562 95.001c-27.333 6 -48.666 9 -63.999 9c-28 0 -52 -6.33301 -72 -19
s-30 -32.334 -30 -59.001c0 -19.333 7.16699 -35 21.5 -47s31.5 -18 51.5 -18c34 0 65 13 93 39zM473.999 741.002c4.66699 -14.667 7 -29.333 7 -44c0 -32 -11 -57.667 -33 -77s-51.333 -29 -88 -29c-24.667 0 -54.334 8 -89.001 24c-32 14.667 -50.667 22 -56 22
c-14.667 0 -22 -6.66699 -22 -20c0 -3.33301 0.333008 -5.33301 1 -6l-88 -10c-5.33301 17.333 -8 32 -8 44c0 31.333 11 56.833 33 76.5s51.667 29.5 89 29.5c24.667 0 54.334 -8 89.001 -24c32 -14.667 50.667 -22 56 -22c14.667 0 22 6.66699 22 20
c0 3.33301 -0.333008 5.33301 -1 6z" />
    <glyph glyph-name="adieresis" unicode="&#xe4;" horiz-adv-x="586" 
d="M527 0l-136 0.000976562l-15 42c-28 -36 -75 -54 -141 -54c-52.667 0 -98.167 15.833 -136.5 47.5s-57.5 73.5 -57.5 125.5c0 59.333 22.833 102.666 68.5 129.999s100.167 41 163.5 41c30 0 60.667 -3.66699 92 -11v4c0 32.667 -7.5 57.667 -22.5 75
s-40.167 26 -75.5 26c-44.667 0 -97.667 -15.333 -159 -46l-42 111c77.333 38 156.333 57 237 57c72.667 0 128.167 -20 166.5 -60s57.5 -95.667 57.5 -167v-321zM365 135.001l-0.000976562 95.001c-27.333 6 -48.666 9 -63.999 9c-28 0 -52 -6.33301 -72 -19
s-30 -32.334 -30 -59.001c0 -19.333 7.16699 -35 21.5 -47s31.5 -18 51.5 -18c34 0 65 13 93 39zM240.999 600.002h-162v128h162v-128zM496.999 600.002h-162v128h162v-128z" />
    <glyph glyph-name="aring" unicode="&#xe5;" horiz-adv-x="586" 
d="M527 0l-136 0.000976562l-15 42c-28 -36 -75 -54 -141 -54c-52.667 0 -98.167 15.833 -136.5 47.5s-57.5 73.5 -57.5 125.5c0 59.333 22.833 102.666 68.5 129.999s100.167 41 163.5 41c30 0 60.667 -3.66699 92 -11v4c0 32.667 -7.5 57.667 -22.5 75
s-40.167 26 -75.5 26c-44.667 0 -97.667 -15.333 -159 -46l-42 111c77.333 38 156.333 57 237 57c72.667 0 128.167 -20 166.5 -60s57.5 -95.667 57.5 -167v-321zM365 135.001l-0.000976562 95.001c-27.333 6 -48.666 9 -63.999 9c-28 0 -52 -6.33301 -72 -19
s-30 -32.334 -30 -59.001c0 -19.333 7.16699 -35 21.5 -47s31.5 -18 51.5 -18c34 0 65 13 93 39zM170.999 701.002c0 33.333 11.833 61.833 35.5 85.5s52.167 35.5 85.5 35.5s61.833 -11.833 85.5 -35.5s35.5 -52.167 35.5 -85.5s-11.833 -61.833 -35.5 -85.5
s-52.167 -35.5 -85.5 -35.5s-61.833 11.833 -85.5 35.5s-35.5 52.167 -35.5 85.5zM245.999 701.002c0 -12.667 4.33301 -23.5 13 -32.5s19.667 -13.5 33 -13.5s24.333 4.5 33 13.5s13 19.833 13 32.5s-4.33301 23.5 -13 32.5s-19.667 13.5 -33 13.5s-24.333 -4.5 -33 -13.5
s-13 -19.833 -13 -32.5z" />
    <glyph glyph-name="ae" unicode="&#xe6;" horiz-adv-x="931" 
d="M736 334c-1.33301 28.667 -10.667 50.833 -28 66.5s-39.333 23.5 -66 23.5c-56.667 0 -93 -30 -109 -90h203zM381.999 151.999c-9.33301 24 -15.333 50.001 -18 78.001c-27.333 6 -48.333 9 -63 9c-28 0 -52 -6.33301 -72 -19s-30 -32.334 -30 -59.001
c0 -19.333 7.16699 -35 21.5 -47s31.5 -18 51.5 -18c45.333 0 82 18.667 110 56zM883.999 122c-34 -46.667 -69.666 -80.667 -106.999 -102s-84.333 -32 -141 -32c-79.333 0 -144.333 24.667 -195 74c-32.667 -27.333 -64 -46.5 -94 -57.5s-67.333 -16.5 -112 -16.5
c-52.667 0 -98.167 15.833 -136.5 47.5s-57.5 73.5 -57.5 125.5c0 59.333 22.833 102.666 68.5 129.999s100.167 41 163.5 41c30 0 60.667 -3.66699 92 -11v4c0 32.667 -7.5 57.667 -22.5 75s-40.167 26 -75.5 26c-44.667 0 -97.667 -15.333 -159 -46l-42 111
c77.333 38 156.333 57 237 57c72 0 127 -20.667 165 -62c47.333 41.333 103.666 62 168.999 62c75.333 0 138 -23.333 188 -70s75 -105.667 75 -177c0 -19.333 -2.33301 -43.666 -7 -72.999h-366c5.33301 -34 18.5 -61.167 39.5 -81.5s47.833 -30.5 80.5 -30.5
c32 0 57.167 6 75.5 18s37.5 31.667 57.5 59z" />
    <glyph glyph-name="ccedilla" unicode="&#xe7;" horiz-adv-x="525" 
d="M415 166l88.002 -107.001c-52 -47.333 -119.333 -71 -202 -71c-12 0 -20.667 0.333008 -26 1l-19 -48h1c13.333 10 28.666 15 45.999 15c25.333 0 47.666 -10 66.999 -30s29 -44.667 29 -74c0 -30 -11.333 -56.333 -34 -79s-50.334 -34 -83.001 -34
c-52.667 0 -92.667 24.667 -120 74l73 34c9.33301 -21.333 22 -32 38 -32c10.667 0 19.167 3.33301 25.5 10s9.5 15 9.5 25s-3.33301 18.667 -10 26s-14.667 11 -24 11c-15.333 0 -27.333 -6 -36 -18l-78 39l42 96c-52.667 18.667 -94.5 51.334 -125.5 98.001
s-46.5 102 -46.5 166c0 79.333 25.5 145.833 76.5 199.5s117.167 80.5 198.5 80.5c77.333 0 144.333 -24.333 201 -73l-84 -109c-32 30.667 -66 46 -102 46c-37.333 0 -67.666 -14 -90.999 -42s-35 -62 -35 -102s11.667 -74 35 -102s52.333 -42 87 -42
c38.667 0 71.667 14 99 42z" />
    <glyph glyph-name="egrave" unicode="&#xe8;" horiz-adv-x="598" 
d="M551 122c-34 -46.667 -69.667 -80.667 -107 -102s-84.333 -32 -141 -32c-80 0 -145.5 25.167 -196.5 75.5s-76.5 115.833 -76.5 196.5c0 81.333 26.167 149.666 78.5 204.999s117.5 83 195.5 83c75.333 0 138 -23.333 188 -70s75 -105.667 75 -177
c0 -19.333 -2.33301 -43.666 -7 -72.999h-366c5.33301 -34 18.5 -61.167 39.5 -81.5s47.833 -30.5 80.5 -30.5c32 0 57.167 6 75.5 18s37.5 31.667 57.5 59zM200 334l202.999 -0.000976562c-1.33301 28.667 -10.666 50.834 -27.999 66.501s-39.333 23.5 -66 23.5
c-56.667 0 -93 -30 -109 -90zM274.999 581.999l-152 177l107 85l137 -192z" />
    <glyph glyph-name="eacute" unicode="&#xe9;" horiz-adv-x="598" 
d="M551 122c-34 -46.667 -69.667 -80.667 -107 -102s-84.333 -32 -141 -32c-80 0 -145.5 25.167 -196.5 75.5s-76.5 115.833 -76.5 196.5c0 81.333 26.167 149.666 78.5 204.999s117.5 83 195.5 83c75.333 0 138 -23.333 188 -70s75 -105.667 75 -177
c0 -19.333 -2.33301 -43.666 -7 -72.999h-366c5.33301 -34 18.5 -61.167 39.5 -81.5s47.833 -30.5 80.5 -30.5c32 0 57.167 6 75.5 18s37.5 31.667 57.5 59zM200 334l202.999 -0.000976562c-1.33301 28.667 -10.666 50.834 -27.999 66.501s-39.333 23.5 -66 23.5
c-56.667 0 -93 -30 -109 -90zM480.999 758.999l-152 -177l-92 70l137 192z" />
    <glyph glyph-name="ecircumflex" unicode="&#xea;" horiz-adv-x="598" 
d="M551 122c-34 -46.667 -69.667 -80.667 -107 -102s-84.333 -32 -141 -32c-80 0 -145.5 25.167 -196.5 75.5s-76.5 115.833 -76.5 196.5c0 81.333 26.167 149.666 78.5 204.999s117.5 83 195.5 83c75.333 0 138 -23.333 188 -70s75 -105.667 75 -177
c0 -19.333 -2.33301 -43.666 -7 -72.999h-366c5.33301 -34 18.5 -61.167 39.5 -81.5s47.833 -30.5 80.5 -30.5c32 0 57.167 6 75.5 18s37.5 31.667 57.5 59zM200 334l202.999 -0.000976562c-1.33301 28.667 -10.666 50.834 -27.999 66.501s-39.333 23.5 -66 23.5
c-56.667 0 -93 -30 -109 -90zM227.999 818.999h162l115 -174l-88 -53l-110 132l-108 -132l-88 53z" />
    <glyph glyph-name="edieresis" unicode="&#xeb;" horiz-adv-x="598" 
d="M551 122c-34 -46.667 -69.667 -80.667 -107 -102s-84.333 -32 -141 -32c-80 0 -145.5 25.167 -196.5 75.5s-76.5 115.833 -76.5 196.5c0 81.333 26.167 149.666 78.5 204.999s117.5 83 195.5 83c75.333 0 138 -23.333 188 -70s75 -105.667 75 -177
c0 -19.333 -2.33301 -43.666 -7 -72.999h-366c5.33301 -34 18.5 -61.167 39.5 -81.5s47.833 -30.5 80.5 -30.5c32 0 57.167 6 75.5 18s37.5 31.667 57.5 59zM200 334l202.999 -0.000976562c-1.33301 28.667 -10.666 50.834 -27.999 66.501s-39.333 23.5 -66 23.5
c-56.667 0 -93 -30 -109 -90zM259.999 599.999h-162v128h162v-128zM515.999 599.999h-162v128h162v-128z" />
    <glyph glyph-name="igrave" unicode="&#xec;" horiz-adv-x="288" 
d="M225 0h-162v536h162v-536zM110 582l-152 177l107 85l137 -192z" />
    <glyph glyph-name="iacute" unicode="&#xed;" horiz-adv-x="288" 
d="M225 0h-162v536h162v-536zM330 759l-152 -177l-92 70l137 192z" />
    <glyph glyph-name="icircumflex" unicode="&#xee;" horiz-adv-x="288" 
d="M225 0h-162v536h162v-536zM64 819h162l115 -174l-88 -53l-110 132l-108 -132l-88 53z" />
    <glyph glyph-name="idieresis" unicode="&#xef;" horiz-adv-x="288" 
d="M116 600h-162v128h162v-128zM334 600h-162v128h162v-128zM225 0h-162v536h162v-536z" />
    <glyph glyph-name="eth" unicode="&#xf0;" horiz-adv-x="623" 
d="M239 587l-43.002 -82.999l-101 54l41 78c-16 6.66699 -40 16 -72 28l55 127c42.667 -18 69 -29.333 79 -34l38 75l102 -52l-36 -72c90.667 -48 161.834 -106.833 213.501 -176.5s77.5 -155.834 77.5 -258.501c0 -82 -27.5 -150 -82.5 -204s-125.167 -81 -210.5 -81
c-73.333 0 -136.666 25 -189.999 75s-80 108.667 -80 176c0 72.667 24 131 72 175s109.667 66 185 66c34 0 66.333 -8.66699 97 -26c-32.667 52.667 -81 97 -145 133zM424.998 318.001c-32 21.333 -66.666 32 -103.999 32c-35.333 0 -65.333 -9.16699 -90 -27.5
s-37 -44.833 -37 -79.5c0 -34 10.667 -63.333 32 -88s47.666 -37 78.999 -37c42 0 73.167 13.833 93.5 41.5s30.5 62.5 30.5 104.5c0 13.333 -1.33301 31.333 -4 54z" />
    <glyph glyph-name="ntilde" unicode="&#xf1;" horiz-adv-x="622" 
d="M63 536h136.001l14 -69c40.667 54 95.334 81 164.001 81c53.333 0 99.333 -23.667 138 -71c20 -25.333 33 -53.5 39 -84.5s9 -69.167 9 -114.5v-278h-162v272c0 50.667 -4 85 -12 103c-10.667 24.667 -32 37 -64 37c-18.667 0 -37.334 -5 -56.001 -15
s-33.334 -23.667 -44.001 -41v-356h-162v536zM525.001 741c4.66699 -14.667 7 -29.333 7 -44c0 -32 -11 -57.667 -33 -77s-51.333 -29 -88 -29c-24.667 0 -54.334 8 -89.001 24c-32 14.667 -50.667 22 -56 22c-14.667 0 -22 -6.66699 -22 -20
c0 -3.33301 0.333008 -5.33301 1 -6l-88 -10c-5.33301 17.333 -8 32 -8 44c0 31.333 11 56.833 33 76.5s51.667 29.5 89 29.5c24.667 0 54.334 -8 89.001 -24c32 -14.667 50.667 -22 56 -22c14.667 0 22 6.66699 22 20c0 3.33301 -0.333008 5.33301 -1 6z" />
    <glyph glyph-name="ograve" unicode="&#xf2;" horiz-adv-x="626" 
d="M313 548c82 0 149.667 -26.667 203 -80s80 -120 80 -200s-26.667 -146.667 -80 -200s-121 -80 -203 -80s-149.667 26.667 -203 80s-80 120 -80 200s26.667 146.667 80 200s121 80 203 80zM432 268c0 41.333 -11 75.666 -33 102.999s-50.667 41 -86 41
s-64 -13.667 -86 -41s-33 -61.666 -33 -102.999s11 -75.666 33 -102.999s50.667 -41 86 -41s64 13.667 86 41s33 61.666 33 102.999zM254 582l-152 177l107 85l137 -192z" />
    <glyph glyph-name="oacute" unicode="&#xf3;" horiz-adv-x="626" 
d="M313 548c82 0 149.667 -26.667 203 -80s80 -120 80 -200s-26.667 -146.667 -80 -200s-121 -80 -203 -80s-149.667 26.667 -203 80s-80 120 -80 200s26.667 146.667 80 200s121 80 203 80zM432 268c0 41.333 -11 75.666 -33 102.999s-50.667 41 -86 41
s-64 -13.667 -86 -41s-33 -61.666 -33 -102.999s11 -75.666 33 -102.999s50.667 -41 86 -41s64 13.667 86 41s33 61.666 33 102.999zM511 759l-152 -177l-92 70l137 192z" />
    <glyph glyph-name="ocircumflex" unicode="&#xf4;" horiz-adv-x="626" 
d="M313 548c82 0 149.667 -26.667 203 -80s80 -120 80 -200s-26.667 -146.667 -80 -200s-121 -80 -203 -80s-149.667 26.667 -203 80s-80 120 -80 200s26.667 146.667 80 200s121 80 203 80zM432 268c0 41.333 -11 75.666 -33 102.999s-50.667 41 -86 41
s-64 -13.667 -86 -41s-33 -61.666 -33 -102.999s11 -75.666 33 -102.999s50.667 -41 86 -41s64 13.667 86 41s33 61.666 33 102.999zM233 819h162l115 -174l-88 -53l-110 132l-108 -132l-88 53z" />
    <glyph glyph-name="otilde" unicode="&#xf5;" horiz-adv-x="626" 
d="M313 548c82 0 149.667 -26.667 203 -80s80 -120 80 -200s-26.667 -146.667 -80 -200s-121 -80 -203 -80s-149.667 26.667 -203 80s-80 120 -80 200s26.667 146.667 80 200s121 80 203 80zM432 268c0 41.333 -11 75.666 -33 102.999s-50.667 41 -86 41
s-64 -13.667 -86 -41s-33 -61.666 -33 -102.999s11 -75.666 33 -102.999s50.667 -41 86 -41s64 13.667 86 41s33 61.666 33 102.999zM517 741c4.66699 -14.667 7 -29.333 7 -44c0 -32 -11 -57.667 -33 -77s-51.333 -29 -88 -29c-24.667 0 -54.334 8 -89.001 24
c-32 14.667 -50.667 22 -56 22c-14.667 0 -22 -6.66699 -22 -20c0 -3.33301 0.333008 -5.33301 1 -6l-88 -10c-5.33301 17.333 -8 32 -8 44c0 31.333 11 56.833 33 76.5s51.667 29.5 89 29.5c24.667 0 54.334 -8 89.001 -24c32 -14.667 50.667 -22 56 -22
c14.667 0 22 6.66699 22 20c0 3.33301 -0.333008 5.33301 -1 6z" />
    <glyph glyph-name="odieresis" unicode="&#xf6;" horiz-adv-x="626" 
d="M313 548c82 0 149.667 -26.667 203 -80s80 -120 80 -200s-26.667 -146.667 -80 -200s-121 -80 -203 -80s-149.667 26.667 -203 80s-80 120 -80 200s26.667 146.667 80 200s121 80 203 80zM432 268c0 41.333 -11 75.666 -33 102.999s-50.667 41 -86 41
s-64 -13.667 -86 -41s-33 -61.666 -33 -102.999s11 -75.666 33 -102.999s50.667 -41 86 -41s64 13.667 86 41s33 61.666 33 102.999zM266 600h-162v128h162v-128zM522 600h-162v128h162v-128z" />
    <glyph glyph-name="divide" unicode="&#xf7;" 
d="M24 251v127h501v-127h-501zM359 29h-171v162h171v-162zM359 438h-171v162h171v-162z" />
    <glyph glyph-name="oslash" unicode="&#xf8;" horiz-adv-x="626" 
d="M530 508l-22 -32.999c58.667 -53.333 88 -122.333 88 -207c0 -80 -26.667 -146.667 -80 -200s-121 -80 -203 -80c-42.667 0 -82 7.66699 -118 23l-29 -43l-80 53l29 42c-56.667 53.333 -85 121.666 -85 204.999c0 80 26.667 146.667 80 200s121 80 203 80
c40.667 0 78.667 -7.33301 114 -22l23 35zM417 341.001l-142 -210.999c12 -4 24.667 -6 38 -6c35.333 0 64 13.667 86 41s33 61.666 33 102.999c0 28 -5 52.333 -15 73zM346 407.002c-11.333 3.33301 -22.333 4.99902 -33 4.99902c-35.333 0 -64 -13.667 -86 -41
s-33 -61.666 -33 -102.999c0 -26 4 -49 12 -69z" />
    <glyph glyph-name="ugrave" unicode="&#xf9;" horiz-adv-x="622" 
d="M559 0h-136.001l-14 69c-40.667 -54 -95.334 -81 -164.001 -81c-53.333 0 -99.333 23.667 -138 71c-20 25.333 -33 53.5 -39 84.5s-9 69.167 -9 114.5v278h162v-272c0 -50.667 4 -85 12 -103c10.667 -24.667 32 -37 64 -37c18.667 0 37.334 5 56.001 15
s33.334 23.667 44.001 41v356h162v-536zM291.999 582l-152 177l107 85l137 -192z" />
    <glyph glyph-name="uacute" unicode="&#xfa;" horiz-adv-x="622" 
d="M559 0h-136.001l-14 69c-40.667 -54 -95.334 -81 -164.001 -81c-53.333 0 -99.333 23.667 -138 71c-20 25.333 -33 53.5 -39 84.5s-9 69.167 -9 114.5v278h162v-272c0 -50.667 4 -85 12 -103c10.667 -24.667 32 -37 64 -37c18.667 0 37.334 5 56.001 15
s33.334 23.667 44.001 41v356h162v-536zM494.999 759l-152 -177l-92 70l137 192z" />
    <glyph glyph-name="ucircumflex" unicode="&#xfb;" horiz-adv-x="622" 
d="M559 0h-136.001l-14 69c-40.667 -54 -95.334 -81 -164.001 -81c-53.333 0 -99.333 23.667 -138 71c-20 25.333 -33 53.5 -39 84.5s-9 69.167 -9 114.5v278h162v-272c0 -50.667 4 -85 12 -103c10.667 -24.667 32 -37 64 -37c18.667 0 37.334 5 56.001 15
s33.334 23.667 44.001 41v356h162v-536zM231.999 819h162l115 -174l-88 -53l-110 132l-108 -132l-88 53z" />
    <glyph glyph-name="udieresis" unicode="&#xfc;" horiz-adv-x="622" 
d="M559 0h-136.001l-14 69c-40.667 -54 -95.334 -81 -164.001 -81c-53.333 0 -99.333 23.667 -138 71c-20 25.333 -33 53.5 -39 84.5s-9 69.167 -9 114.5v278h162v-272c0 -50.667 4 -85 12 -103c10.667 -24.667 32 -37 64 -37c18.667 0 37.334 5 56.001 15
s33.334 23.667 44.001 41v356h162v-536zM261.999 600h-162v128h162v-128zM517.999 600h-162v128h162v-128z" />
    <glyph glyph-name="yacute" unicode="&#xfd;" horiz-adv-x="552" 
d="M2 536h176l96 -295h2l99 295h175l-302 -783l-145 56l86 228zM452 759l-152 -177l-92 70l137 192z" />
    <glyph glyph-name="thorn" unicode="&#xfe;" horiz-adv-x="651" 
d="M63 750h161.999v-264c34 41.333 85 62 153 62c68.667 0 126.334 -27.5 173.001 -82.5s70 -121.5 70 -199.5c0 -77.333 -23.333 -143 -70 -197s-104.667 -81 -174 -81c-68 0 -118.667 20.333 -152 61v-299h-162v1000zM224.999 351l0.000976562 -177
c30 -33.333 67.667 -50 113 -50c38 0 67.333 14.667 88 44s31 63.333 31 102c0 38 -10.833 71.167 -32.5 99.5s-49.834 42.5 -84.501 42.5c-48.667 0 -87 -20.333 -115 -61z" />
    <glyph glyph-name="ydieresis" unicode="&#xff;" horiz-adv-x="552" 
d="M2 536h176l96 -295h2l99 295h175l-302 -783l-145 56l86 228zM231 600h-162v128h162v-128zM487 600h-162v128h162v-128z" />
    <glyph glyph-name="Amacron" unicode="&#x100;" horiz-adv-x="703" 
d="M692 0h-186l-41 123h-231l-44 -123h-179l291 700h129zM353 454l-72 -202h140l-67 202h-1zM554 771h-378v104h378v-104z" />
    <glyph glyph-name="amacron" unicode="&#x101;" horiz-adv-x="586" 
d="M527 0l-136 0.000976562l-15 42c-28 -36 -75 -54 -141 -54c-52.667 0 -98.167 15.833 -136.5 47.5s-57.5 73.5 -57.5 125.5c0 59.333 22.833 102.666 68.5 129.999s100.167 41 163.5 41c30 0 60.667 -3.66699 92 -11v4c0 32.667 -7.5 57.667 -22.5 75
s-40.167 26 -75.5 26c-44.667 0 -97.667 -15.333 -159 -46l-42 111c77.333 38 156.333 57 237 57c72.667 0 128.167 -20 166.5 -60s57.5 -95.667 57.5 -167v-321zM365 135.001l-0.000976562 95.001c-27.333 6 -48.666 9 -63.999 9c-28 0 -52 -6.33301 -72 -19
s-30 -32.334 -30 -59.001c0 -19.333 7.16699 -35 21.5 -47s31.5 -18 51.5 -18c34 0 65 13 93 39zM493.999 610.002h-360v108h360v-108z" />
    <glyph glyph-name="Abreve" unicode="&#x102;" horiz-adv-x="703" 
d="M692 0h-186l-41 123h-231l-44 -123h-179l291 700h129zM353 454l-72 -202h140l-67 202h-1zM424 910h114.004c0.666992 -2.66699 1 -7.33398 1 -14.001c0 -47.333 -16.833 -86.333 -50.5 -117s-74.834 -46 -123.501 -46s-89.834 15.333 -123.501 46s-50.5 69.667 -50.5 117
c0 6.66699 0.333008 11.334 1 14.001h114c-0.666992 -4 -1 -9.33301 -1 -16c0 -16.667 5.66699 -30.334 17 -41.001s25.666 -16 42.999 -16s31.666 5.33301 42.999 16s17 24.334 17 41.001c0 6.66699 -0.333008 12 -1 16z" />
    <glyph glyph-name="abreve" unicode="&#x103;" horiz-adv-x="586" 
d="M527 0l-136 0.000976562l-15 42c-28 -36 -75 -54 -141 -54c-52.667 0 -98.167 15.833 -136.5 47.5s-57.5 73.5 -57.5 125.5c0 59.333 22.833 102.666 68.5 129.999s100.167 41 163.5 41c30 0 60.667 -3.66699 92 -11v4c0 32.667 -7.5 57.667 -22.5 75
s-40.167 26 -75.5 26c-44.667 0 -97.667 -15.333 -159 -46l-42 111c77.333 38 156.333 57 237 57c72.667 0 128.167 -20 166.5 -60s57.5 -95.667 57.5 -167v-321zM365 135.001l-0.000976562 95.001c-27.333 6 -48.666 9 -63.999 9c-28 0 -52 -6.33301 -72 -19
s-30 -32.334 -30 -59.001c0 -19.333 7.16699 -35 21.5 -47s31.5 -18 51.5 -18c34 0 65 13 93 39zM370.999 780.002h113.998c0.666992 -2.66699 1 -7.33398 1 -14.001c0 -48 -17 -88.5 -51 -121.5s-75 -49.5 -123 -49.5s-89 16.5 -123 49.5s-51 73.5 -51 121.5
c0 6.66699 0.333008 11.334 1 14.001h114c-0.666992 -4 -1 -9.33301 -1 -16c0 -17.333 5.83301 -32.5 17.5 -45.5s25.834 -19.5 42.501 -19.5s30.834 6.5 42.501 19.5s17.5 28.167 17.5 45.5c0 6.66699 -0.333008 12 -1 16z" />
    <glyph glyph-name="Aogonek" unicode="&#x104;" horiz-adv-x="703" 
d="M692 0c-93.333 -7.33301 -139.998 -35.333 -139.998 -84c0 -26 17.333 -39 52 -39c15.333 0 31.666 4.33301 48.999 13l33 -89c-34 -19.333 -74 -29 -120 -29c-40.667 0 -74.667 10.5 -102 31.5s-41 47.167 -41 78.5c0 26 7.16699 50 21.5 72s34.166 39.333 59.499 52
l-39 117h-231l-44 -123h-179l291 700h129zM353.002 454l-72 -202h140l-67 202h-1z" />
    <glyph glyph-name="aogonek" unicode="&#x105;" horiz-adv-x="586" 
d="M527 321l0.000976562 -320.999c-36.667 -7.33301 -65.167 -17.333 -85.5 -30s-30.5 -30.667 -30.5 -54c0 -26 17.333 -39 52 -39c15.333 0 31.666 4.33301 48.999 13l33 -89c-34 -19.333 -74 -29 -120 -29c-40.667 0 -74.667 10.5 -102 31.5s-41 47.167 -41 78.5
c0 58 35.333 99.333 106 124l-12 36c-28 -36 -75 -54 -141 -54c-52.667 0 -98.167 15.833 -136.5 47.5s-57.5 73.5 -57.5 125.5c0 59.333 22.833 102.666 68.5 129.999s100.167 41 163.5 41c30 0 60.667 -3.66699 92 -11v4c0 32.667 -7.5 57.667 -22.5 75
s-40.167 26 -75.5 26c-44.667 0 -97.667 -15.333 -159 -46l-42 111c77.333 38 156.333 57 237 57c72.667 0 128.167 -20 166.5 -60s57.5 -95.667 57.5 -167zM365.001 135.001l-0.000976562 95.001c-27.333 6 -48.666 9 -63.999 9c-28 0 -52 -6.33301 -72 -19
s-30 -32.334 -30 -59.001c0 -19.333 7.16699 -35 21.5 -47s31.5 -18 51.5 -18c34 0 65 13 93 39z" />
    <glyph glyph-name="Cacute" unicode="&#x106;" horiz-adv-x="675" 
d="M642 638l-78 -125c-47.333 39.333 -96.333 59 -147 59c-57.333 0 -105 -21.5 -143 -64.5s-57 -95.5 -57 -157.5c0 -66 17.5 -119.5 52.5 -160.5s83.833 -61.5 146.5 -61.5c55.333 0 104.333 20.333 147 61l92 -116c-72.667 -56.667 -154.667 -85 -246 -85
c-105.333 0 -192.333 34 -261 102s-103 154.667 -103 260c0 101.333 36.167 187 108.5 257s159.833 105 262.5 105c72.667 0 148 -24.667 226 -74zM603 859l-185 -128l-72 90l175 147z" />
    <glyph glyph-name="cacute" unicode="&#x107;" horiz-adv-x="525" 
d="M415 166l87.999 -107c-52 -47.333 -119.333 -71 -202 -71c-80 0 -145.167 26 -195.5 78s-75.5 119.333 -75.5 202c0 79.333 25.5 145.833 76.5 199.5s117.167 80.5 198.5 80.5c77.333 0 144.333 -24.333 201 -73l-84 -109c-32 30.667 -66 46 -102 46
c-37.333 0 -67.666 -14 -90.999 -42s-35 -62 -35 -102s11.667 -74 35 -102s52.333 -42 87 -42c38.667 0 71.667 14 99 42zM511.999 759l-152 -177l-92 70l137 192z" />
    <glyph glyph-name="Ccircumflex" unicode="&#x108;" horiz-adv-x="675" 
d="M642 638l-78 -125c-47.333 39.333 -96.333 59 -147 59c-57.333 0 -105 -21.5 -143 -64.5s-57 -95.5 -57 -157.5c0 -66 17.5 -119.5 52.5 -160.5s83.833 -61.5 146.5 -61.5c55.333 0 104.333 20.333 147 61l92 -116c-72.667 -56.667 -154.667 -85 -246 -85
c-105.333 0 -192.333 34 -261 102s-103 154.667 -103 260c0 101.333 36.167 187 108.5 257s159.833 105 262.5 105c72.667 0 148 -24.667 226 -74zM332 949h176l111 -146l-93 -67l-109 119l-111 -119l-91 67z" />
    <glyph glyph-name="ccircumflex" unicode="&#x109;" horiz-adv-x="525" 
d="M415 166l87.999 -107c-52 -47.333 -119.333 -71 -202 -71c-80 0 -145.167 26 -195.5 78s-75.5 119.333 -75.5 202c0 79.333 25.5 145.833 76.5 199.5s117.167 80.5 198.5 80.5c77.333 0 144.333 -24.333 201 -73l-84 -109c-32 30.667 -66 46 -102 46
c-37.333 0 -67.666 -14 -90.999 -42s-35 -62 -35 -102s11.667 -74 35 -102s52.333 -42 87 -42c38.667 0 71.667 14 99 42zM225.999 819h162l115 -174l-88 -53l-110 132l-108 -132l-88 53z" />
    <glyph glyph-name="Cdotaccent" unicode="&#x10a;" horiz-adv-x="675" 
d="M642 638l-78 -125c-47.333 39.333 -96.333 59 -147 59c-57.333 0 -105 -21.5 -143 -64.5s-57 -95.5 -57 -157.5c0 -66 17.5 -119.5 52.5 -160.5s83.833 -61.5 146.5 -61.5c55.333 0 104.333 20.333 147 61l92 -116c-72.667 -56.667 -154.667 -85 -246 -85
c-105.333 0 -192.333 34 -261 102s-103 154.667 -103 260c0 101.333 36.167 187 108.5 257s159.833 105 262.5 105c72.667 0 148 -24.667 226 -74zM494 761h-162v124h162v-124z" />
    <glyph glyph-name="cdotaccent" unicode="&#x10b;" horiz-adv-x="525" 
d="M415 166l87.999 -107c-52 -47.333 -119.333 -71 -202 -71c-80 0 -145.167 26 -195.5 78s-75.5 119.333 -75.5 202c0 79.333 25.5 145.833 76.5 199.5s117.167 80.5 198.5 80.5c77.333 0 144.333 -24.333 201 -73l-84 -109c-32 30.667 -66 46 -102 46
c-37.333 0 -67.666 -14 -90.999 -42s-35 -62 -35 -102s11.667 -74 35 -102s52.333 -42 87 -42c38.667 0 71.667 14 99 42zM378.999 600h-162v128h162v-128z" />
    <glyph glyph-name="Ccaron" unicode="&#x10c;" horiz-adv-x="675" 
d="M642 638l-78 -125c-47.333 39.333 -96.333 59 -147 59c-57.333 0 -105 -21.5 -143 -64.5s-57 -95.5 -57 -157.5c0 -66 17.5 -119.5 52.5 -160.5s83.833 -61.5 146.5 -61.5c55.333 0 104.333 20.333 147 61l92 -116c-72.667 -56.667 -154.667 -85 -246 -85
c-105.333 0 -192.333 34 -261 102s-103 154.667 -103 260c0 101.333 36.167 187 108.5 257s159.833 105 262.5 105c72.667 0 148 -24.667 226 -74zM502 743h-176l-111 146l94 67l109 -119l111 119l90 -67z" />
    <glyph glyph-name="ccaron" unicode="&#x10d;" horiz-adv-x="525" 
d="M415 166l87.999 -107c-52 -47.333 -119.333 -71 -202 -71c-80 0 -145.167 26 -195.5 78s-75.5 119.333 -75.5 202c0 79.333 25.5 145.833 76.5 199.5s117.167 80.5 198.5 80.5c77.333 0 144.333 -24.333 201 -73l-84 -109c-32 30.667 -66 46 -102 46
c-37.333 0 -67.666 -14 -90.999 -42s-35 -62 -35 -102s11.667 -74 35 -102s52.333 -42 87 -42c38.667 0 71.667 14 99 42zM386.999 604h-162l-115 174l89 53l110 -132l108 132l87 -53z" />
    <glyph glyph-name="Dcaron" unicode="&#x10e;" horiz-adv-x="713" 
d="M71 0l0.000976562 700h210c48 0 94 -6.5 138 -19.5s85 -32.5 123 -58.5s68.5 -62.167 91.5 -108.5s34.5 -99.833 34.5 -160.5c0 -62 -11.333 -116.5 -34 -163.5s-53.334 -83.833 -92.001 -110.5s-80.667 -46.5 -126 -59.5s-93.333 -19.5 -144 -19.5h-201zM233.001 566
l-0.000976562 -432h9c169.333 0 254 70 254 210c0 72 -20.167 127 -60.5 165s-97.166 57 -170.499 57h-32zM407 743h-176l-111 146l94 67l109 -119l111 119l90 -67z" />
    <glyph glyph-name="dcaron" unicode="&#x10f;" horiz-adv-x="751" 
d="M588 750v-750h-136l-16 64c-16.667 -26.667 -40.167 -46 -70.5 -58s-61.166 -18 -92.499 -18c-68.667 0 -126.334 27.5 -173.001 82.5s-70 121.5 -70 199.5c0 77.333 23.333 143 70 197s104.667 81 174 81c66 0 116.667 -20.667 152 -62v264h162zM426 361
c-30.667 34 -68.333 51 -113 51c-38 0 -67.333 -14.667 -88 -44s-31 -63.333 -31 -102c0 -38 10.833 -71.167 32.5 -99.5s49.834 -42.5 84.501 -42.5c49.333 0 87.666 20 114.999 60v177zM754.001 527h-135l45 223h149z" />
    <glyph glyph-name="Dcroat" unicode="&#x110;" horiz-adv-x="713" 
d="M71 0l0.000976562 310h-65v105h65v285h210c48 0 94 -6.5 138 -19.5s85 -32.5 123 -58.5s68.5 -62.167 91.5 -108.5s34.5 -99.833 34.5 -160.5c0 -62 -11.333 -116.5 -34 -163.5s-53.334 -83.833 -92.001 -110.5s-80.667 -46.5 -126 -59.5s-93.333 -19.5 -144 -19.5h-201z
M233.001 566l-0.000976562 -151h110v-105h-110v-176h9c169.333 0 254 70 254 210c0 72 -20.167 127 -60.5 165s-97.166 57 -170.499 57h-32z" />
    <glyph glyph-name="dcroat" unicode="&#x111;" horiz-adv-x="651" 
d="M655 690v-105h-67v-585h-136l-16 64c-16.667 -26.667 -40.167 -46 -70.5 -58s-61.166 -18 -92.499 -18c-68.667 0 -126.334 27.5 -173.001 82.5s-70 121.5 -70 199.5c0 77.333 23.333 143 70 197s104.667 81 174 81c66 0 116.667 -20.667 152 -62v99h-159v105h159v60h162
v-60h67zM426 184l0.000976562 177c-30.667 34 -68.334 51 -113.001 51c-38 0 -67.333 -14.667 -88 -44s-31 -63.333 -31 -102c0 -38 10.833 -71.167 32.5 -99.5s49.834 -42.5 84.501 -42.5c49.333 0 87.666 20 114.999 60z" />
    <glyph glyph-name="Emacron" unicode="&#x112;" horiz-adv-x="580" 
d="M531 0h-460v700h460v-134h-298v-139h298v-134h-298v-159h298v-134zM497 771h-378v104h378v-104z" />
    <glyph glyph-name="emacron" unicode="&#x113;" horiz-adv-x="598" 
d="M551 122c-34 -46.667 -69.667 -80.667 -107 -102s-84.333 -32 -141 -32c-80 0 -145.5 25.167 -196.5 75.5s-76.5 115.833 -76.5 196.5c0 81.333 26.167 149.666 78.5 204.999s117.5 83 195.5 83c75.333 0 138 -23.333 188 -70s75 -105.667 75 -177
c0 -19.333 -2.33301 -43.666 -7 -72.999h-366c5.33301 -34 18.5 -61.167 39.5 -81.5s47.833 -30.5 80.5 -30.5c32 0 57.167 6 75.5 18s37.5 31.667 57.5 59zM200 334l202.999 -0.000976562c-1.33301 28.667 -10.666 50.834 -27.999 66.501s-39.333 23.5 -66 23.5
c-56.667 0 -93 -30 -109 -90zM490.999 609.999h-360v108h360v-108z" />
    <glyph glyph-name="Ebreve" unicode="&#x114;" horiz-adv-x="580" 
d="M531 0h-460v700h460v-134h-298v-139h298v-134h-298v-159h298v-134zM364 910h114.004c0.666992 -2.66699 1 -7.33398 1 -14.001c0 -47.333 -16.833 -86.333 -50.5 -117s-74.834 -46 -123.501 -46s-89.834 15.333 -123.501 46s-50.5 69.667 -50.5 117
c0 6.66699 0.333008 11.334 1 14.001h114c-0.666992 -4 -1 -9.33301 -1 -16c0 -16.667 5.66699 -30.334 17 -41.001s25.666 -16 42.999 -16s31.666 5.33301 42.999 16s17 24.334 17 41.001c0 6.66699 -0.333008 12 -1 16z" />
    <glyph glyph-name="ebreve" unicode="&#x115;" horiz-adv-x="598" 
d="M551 122c-34 -46.667 -69.667 -80.667 -107 -102s-84.333 -32 -141 -32c-80 0 -145.5 25.167 -196.5 75.5s-76.5 115.833 -76.5 196.5c0 81.333 26.167 149.666 78.5 204.999s117.5 83 195.5 83c75.333 0 138 -23.333 188 -70s75 -105.667 75 -177
c0 -19.333 -2.33301 -43.666 -7 -72.999h-366c5.33301 -34 18.5 -61.167 39.5 -81.5s47.833 -30.5 80.5 -30.5c32 0 57.167 6 75.5 18s37.5 31.667 57.5 59zM200 334l202.999 -0.000976562c-1.33301 28.667 -10.666 50.834 -27.999 66.501s-39.333 23.5 -66 23.5
c-56.667 0 -93 -30 -109 -90zM366.999 779.999h113.998c0.666992 -2.66699 1 -7.33398 1 -14.001c0 -48 -17 -88.5 -51 -121.5s-75 -49.5 -123 -49.5s-89 16.5 -123 49.5s-51 73.5 -51 121.5c0 6.66699 0.333008 11.334 1 14.001h114c-0.666992 -4 -1 -9.33301 -1 -16
c0 -17.333 5.83301 -32.5 17.5 -45.5s25.834 -19.5 42.501 -19.5s30.834 6.5 42.501 19.5s17.5 28.167 17.5 45.5c0 6.66699 -0.333008 12 -1 16z" />
    <glyph glyph-name="Edotaccent" unicode="&#x116;" horiz-adv-x="580" 
d="M531 0h-460v700h460v-134h-298v-139h298v-134h-298v-159h298v-134zM391 761h-162v124h162v-124z" />
    <glyph glyph-name="edotaccent" unicode="&#x117;" horiz-adv-x="598" 
d="M551 122c-34 -46.667 -69.667 -80.667 -107 -102s-84.333 -32 -141 -32c-80 0 -145.5 25.167 -196.5 75.5s-76.5 115.833 -76.5 196.5c0 81.333 26.167 149.666 78.5 204.999s117.5 83 195.5 83c75.333 0 138 -23.333 188 -70s75 -105.667 75 -177
c0 -19.333 -2.33301 -43.666 -7 -72.999h-366c5.33301 -34 18.5 -61.167 39.5 -81.5s47.833 -30.5 80.5 -30.5c32 0 57.167 6 75.5 18s37.5 31.667 57.5 59zM200 334l202.999 -0.000976562c-1.33301 28.667 -10.666 50.834 -27.999 66.501s-39.333 23.5 -66 23.5
c-56.667 0 -93 -30 -109 -90zM385.999 599.999h-162v128h162v-128z" />
    <glyph glyph-name="Eogonek" unicode="&#x118;" horiz-adv-x="580" 
d="M531 700l0.000976562 -134h-298v-139h298v-134h-298v-159h298v-134c-36.667 -7.33301 -65.167 -17.333 -85.5 -30s-30.5 -30.667 -30.5 -54c0 -26 17.333 -39 52 -39c15.333 0 31.666 4.33301 48.999 13l33 -89c-34 -19.333 -74 -29 -120 -29
c-40.667 0 -74.667 10.5 -102 31.5s-41 47.167 -41 78.5c0 54 30 93.333 90 118h-305v700h460z" />
    <glyph glyph-name="eogonek" unicode="&#x119;" horiz-adv-x="598" 
d="M200 334l202.999 -0.000976562c-1.33301 28.667 -10.666 50.834 -27.999 66.501s-39.333 23.5 -66 23.5c-56.667 0 -93 -30 -109 -90zM550.999 121.999c-42 -58 -87.667 -96.668 -137 -116.001c-19.333 -7.33301 -35.666 -18 -48.999 -32s-20 -29.333 -20 -46
c0 -15.333 4.66699 -27.666 14 -36.999s22 -14 38 -14c15.333 0 31.666 4.33301 48.999 13l33 -89c-34 -19.333 -74 -29 -120 -29c-40.667 0 -74.667 10.5 -102 31.5s-41 47.167 -41 78.5c0 45.333 16.333 81.333 49 108c-70 8 -126.667 36.5 -170 85.5s-65 110.5 -65 184.5
c0 81.333 26.167 149.666 78.5 204.999s117.5 83 195.5 83c75.333 0 138 -23.333 188 -70s75 -105.667 75 -177c0 -19.333 -2.33301 -43.666 -7 -72.999h-366c5.33301 -34 18.5 -61.167 39.5 -81.5s47.833 -30.5 80.5 -30.5c32 0 57.167 6 75.5 18s37.5 31.667 57.5 59z" />
    <glyph glyph-name="Ecaron" unicode="&#x11a;" horiz-adv-x="580" 
d="M531 0h-460v700h460v-134h-298v-139h298v-134h-298v-159h298v-134zM388 743h-176l-111 146l94 67l109 -119l111 119l90 -67z" />
    <glyph glyph-name="ecaron" unicode="&#x11b;" horiz-adv-x="598" 
d="M551 122c-34 -46.667 -69.667 -80.667 -107 -102s-84.333 -32 -141 -32c-80 0 -145.5 25.167 -196.5 75.5s-76.5 115.833 -76.5 196.5c0 81.333 26.167 149.666 78.5 204.999s117.5 83 195.5 83c75.333 0 138 -23.333 188 -70s75 -105.667 75 -177
c0 -19.333 -2.33301 -43.666 -7 -72.999h-366c5.33301 -34 18.5 -61.167 39.5 -81.5s47.833 -30.5 80.5 -30.5c32 0 57.167 6 75.5 18s37.5 31.667 57.5 59zM200 334l202.999 -0.000976562c-1.33301 28.667 -10.666 50.834 -27.999 66.501s-39.333 23.5 -66 23.5
c-56.667 0 -93 -30 -109 -90zM387.999 603.999h-162l-115 174l89 53l110 -132l108 132l87 -53z" />
    <glyph glyph-name="Gcircumflex" unicode="&#x11c;" horiz-adv-x="789" 
d="M567 276l-163.998 -0.000976562v134h326v-276c-72 -97.333 -176 -146 -312 -146c-106.667 0 -195.334 33.833 -266.001 101.5s-106 154.5 -106 260.5c0 101.333 36.167 187 108.5 257s159.833 105 262.5 105c120.667 0 222 -47.667 304 -143l-112 -98
c-56 67.333 -119.667 101 -191 101c-57.333 0 -105 -21.5 -143 -64.5s-57 -95.5 -57 -157.5c0 -65.333 18.167 -118.666 54.5 -159.999s84.5 -62 144.5 -62c57.333 0 107.666 20.667 150.999 62v86zM342.002 948.999h176l111 -146l-93 -67l-109 119l-111 -119l-91 67z" />
    <glyph glyph-name="gcircumflex" unicode="&#x11d;" horiz-adv-x="647" 
d="M588 536l0.00195312 -511c0 -56 -12 -103.667 -36 -143c-22.667 -38 -54.667 -66.5 -96 -85.5s-87.666 -28.5 -138.999 -28.5c-90 0 -173.667 25 -251 75l59 131c59.333 -46.667 121.666 -70 186.999 -70c35.333 0 63.166 9.83301 83.499 29.5s30.5 48.167 30.5 85.5v43
c-34.667 -41.333 -85.667 -62 -153 -62c-68.667 0 -126.334 26.5 -173.001 79.5s-70 118.5 -70 196.5c0 77.333 23.333 142 70 194s104.667 78 174 78c31.333 0 62 -6 92 -18s53.333 -31.667 70 -59l16 65h136zM426.002 196l0.00292969 165
c-30.667 34 -68.334 51 -113.001 51c-38 0 -67.333 -13.833 -88 -41.5s-31 -60.5 -31 -98.5c0 -37.333 10.667 -69.333 32 -96s49.666 -40 84.999 -40c49.333 0 87.666 20 114.999 60zM239.005 819h162l115 -174l-88 -53l-110 132l-108 -132l-88 53z" />
    <glyph glyph-name="Gbreve" unicode="&#x11e;" horiz-adv-x="789" 
d="M567 276l-163.998 -0.000976562v134h326v-276c-72 -97.333 -176 -146 -312 -146c-106.667 0 -195.334 33.833 -266.001 101.5s-106 154.5 -106 260.5c0 101.333 36.167 187 108.5 257s159.833 105 262.5 105c120.667 0 222 -47.667 304 -143l-112 -98
c-56 67.333 -119.667 101 -191 101c-57.333 0 -105 -21.5 -143 -64.5s-57 -95.5 -57 -157.5c0 -65.333 18.167 -118.666 54.5 -159.999s84.5 -62 144.5 -62c57.333 0 107.666 20.667 150.999 62v86zM486.002 909.999h114.004c0.666992 -2.66699 1 -7.33398 1 -14.001
c0 -47.333 -16.833 -86.333 -50.5 -117s-74.834 -46 -123.501 -46s-89.834 15.333 -123.501 46s-50.5 69.667 -50.5 117c0 6.66699 0.333008 11.334 1 14.001h114c-0.666992 -4 -1 -9.33301 -1 -16c0 -16.667 5.66699 -30.334 17 -41.001s25.666 -16 42.999 -16
s31.666 5.33301 42.999 16s17 24.334 17 41.001c0 6.66699 -0.333008 12 -1 16z" />
    <glyph glyph-name="gbreve" unicode="&#x11f;" horiz-adv-x="647" 
d="M588 536l0.00195312 -511c0 -56 -12 -103.667 -36 -143c-22.667 -38 -54.667 -66.5 -96 -85.5s-87.666 -28.5 -138.999 -28.5c-90 0 -173.667 25 -251 75l59 131c59.333 -46.667 121.666 -70 186.999 -70c35.333 0 63.166 9.83301 83.499 29.5s30.5 48.167 30.5 85.5v43
c-34.667 -41.333 -85.667 -62 -153 -62c-68.667 0 -126.334 26.5 -173.001 79.5s-70 118.5 -70 196.5c0 77.333 23.333 142 70 194s104.667 78 174 78c31.333 0 62 -6 92 -18s53.333 -31.667 70 -59l16 65h136zM426.002 196l0.00292969 165
c-30.667 34 -68.334 51 -113.001 51c-38 0 -67.333 -13.833 -88 -41.5s-31 -60.5 -31 -98.5c0 -37.333 10.667 -69.333 32 -96s49.666 -40 84.999 -40c49.333 0 87.666 20 114.999 60zM370.005 780h113.998c0.666992 -2.66699 1 -7.33398 1 -14.001
c0 -48 -17 -88.5 -51 -121.5s-75 -49.5 -123 -49.5s-89 16.5 -123 49.5s-51 73.5 -51 121.5c0 6.66699 0.333008 11.334 1 14.001h114c-0.666992 -4 -1 -9.33301 -1 -16c0 -17.333 5.83301 -32.5 17.5 -45.5s25.834 -19.5 42.501 -19.5s30.834 6.5 42.501 19.5
s17.5 28.167 17.5 45.5c0 6.66699 -0.333008 12 -1 16z" />
    <glyph glyph-name="Gdotaccent" unicode="&#x120;" horiz-adv-x="789" 
d="M567 276l-163.998 -0.000976562v134h326v-276c-72 -97.333 -176 -146 -312 -146c-106.667 0 -195.334 33.833 -266.001 101.5s-106 154.5 -106 260.5c0 101.333 36.167 187 108.5 257s159.833 105 262.5 105c120.667 0 222 -47.667 304 -143l-112 -98
c-56 67.333 -119.667 101 -191 101c-57.333 0 -105 -21.5 -143 -64.5s-57 -95.5 -57 -157.5c0 -65.333 18.167 -118.666 54.5 -159.999s84.5 -62 144.5 -62c57.333 0 107.666 20.667 150.999 62v86zM494.002 760.999h-162v124h162v-124z" />
    <glyph glyph-name="gdotaccent" unicode="&#x121;" horiz-adv-x="647" 
d="M588 536l0.00195312 -511c0 -56 -12 -103.667 -36 -143c-22.667 -38 -54.667 -66.5 -96 -85.5s-87.666 -28.5 -138.999 -28.5c-90 0 -173.667 25 -251 75l59 131c59.333 -46.667 121.666 -70 186.999 -70c35.333 0 63.166 9.83301 83.499 29.5s30.5 48.167 30.5 85.5v43
c-34.667 -41.333 -85.667 -62 -153 -62c-68.667 0 -126.334 26.5 -173.001 79.5s-70 118.5 -70 196.5c0 77.333 23.333 142 70 194s104.667 78 174 78c31.333 0 62 -6 92 -18s53.333 -31.667 70 -59l16 65h136zM426.002 196l0.00292969 165
c-30.667 34 -68.334 51 -113.001 51c-38 0 -67.333 -13.833 -88 -41.5s-31 -60.5 -31 -98.5c0 -37.333 10.667 -69.333 32 -96s49.666 -40 84.999 -40c49.333 0 87.666 20 114.999 60zM390.005 600h-162v128h162v-128z" />
    <glyph glyph-name="Gcommaaccent" unicode="&#x122;" horiz-adv-x="789" 
d="M567 276l-163.998 -0.000976562v134h326v-276c-72 -97.333 -176 -146 -312 -146c-106.667 0 -195.334 33.833 -266.001 101.5s-106 154.5 -106 260.5c0 101.333 36.167 187 108.5 257s159.833 105 262.5 105c120.667 0 222 -47.667 304 -143l-112 -98
c-56 67.333 -119.667 101 -191 101c-57.333 0 -105 -21.5 -143 -64.5s-57 -95.5 -57 -157.5c0 -65.333 18.167 -118.666 54.5 -159.999s84.5 -62 144.5 -62c57.333 0 107.666 20.667 150.999 62v86zM410.002 -256.001h-120l36 197h143z" />
    <glyph glyph-name="gcommaaccent" unicode="&#x123;" horiz-adv-x="647" 
d="M588 536l0.00195312 -511c0 -56 -12 -103.667 -36 -143c-22.667 -38 -54.667 -66.5 -96 -85.5s-87.666 -28.5 -138.999 -28.5c-90 0 -173.667 25 -251 75l59 131c59.333 -46.667 121.666 -70 186.999 -70c35.333 0 63.166 9.83301 83.499 29.5s30.5 48.167 30.5 85.5v43
c-34.667 -41.333 -85.667 -62 -153 -62c-68.667 0 -126.334 26.5 -173.001 79.5s-70 118.5 -70 196.5c0 77.333 23.333 142 70 194s104.667 78 174 78c31.333 0 62 -6 92 -18s53.333 -31.667 70 -59l16 65h136zM426.002 196l0.00292969 165
c-30.667 34 -68.334 51 -113.001 51c-38 0 -67.333 -13.833 -88 -41.5s-31 -60.5 -31 -98.5c0 -37.333 10.667 -69.333 32 -96s49.666 -40 84.999 -40c49.333 0 87.666 20 114.999 60zM302.005 788h120l-36 -197h-143z" />
    <glyph glyph-name="Hcircumflex" unicode="&#x124;" horiz-adv-x="734" 
d="M663 0h-162v293h-268v-293h-162v700h162v-273h268v273h162v-700zM281 949h176l111 -146l-93 -67l-109 119l-111 -119l-91 67z" />
    <glyph glyph-name="hcircumflex" unicode="&#x125;" horiz-adv-x="622" 
d="M225 750l0.00195312 -269c40 44.667 90.667 67 152 67c53.333 0 99.333 -23.667 138 -71c20 -25.333 33 -53.5 39 -84.5s9 -69.167 9 -114.5v-278h-162v272c0 50.667 -4 85 -12 103c-10.667 24.667 -32 37 -64 37c-18.667 0 -37.334 -5 -56.001 -15
s-33.334 -23.667 -44.001 -41v-356h-162v750h162zM58.002 983h176l111 -146l-93 -67l-109 119l-111 -119l-91 67z" />
    <glyph glyph-name="Hbar" unicode="&#x126;" horiz-adv-x="734" 
d="M663 0h-162v293h-268v-293h-162v495h-83v105h83v100h162v-100h268v100h162v-100h83v-105h-83v-495zM233 427h268v68h-268v-68z" />
    <glyph glyph-name="hbar" unicode="&#x127;" horiz-adv-x="622" 
d="M225 750l0.00195312 -60h157v-106h-157v-103c40 44.667 90.667 67 152 67c53.333 0 99.333 -23.667 138 -71c20 -25.333 33 -53.5 39 -84.5s9 -69.167 9 -114.5v-278h-162v272c0 50.667 -4 85 -12 103c-10.667 24.667 -32 37 -64 37c-18.667 0 -37.334 -5 -56.001 -15
s-33.334 -23.667 -44.001 -41v-356h-162v584h-69v106h69v60h162z" />
    <glyph glyph-name="Itilde" unicode="&#x128;" horiz-adv-x="304" 
d="M233 0h-162v700h162v-700zM341 889c4.66699 -14.667 7 -29.333 7 -44c0 -32 -11 -57.667 -33 -77s-51.333 -29 -88 -29c-24.667 0 -54.334 8 -89.001 24c-32 14.667 -50.667 22 -56 22c-14.667 0 -22 -6.66699 -22 -20c0 -2.66699 0.333008 -4.66699 1 -6l-88 -10
c-5.33301 17.333 -8 32 -8 44c0 31.333 11 56.833 33 76.5s51.667 29.5 89 29.5c24.667 0 54.334 -8 89.001 -24c32 -14.667 50.667 -22 56 -22c14.667 0 22 6.66699 22 20c0 2.66699 -0.333008 4.66699 -1 6z" />
    <glyph glyph-name="itilde" unicode="&#x129;" horiz-adv-x="288" 
d="M225 0h-162v536h162v-536zM328 741c4.66699 -14.667 7 -29.333 7 -44c0 -32 -11 -57.667 -33 -77s-51.333 -29 -88 -29c-24.667 0 -54.334 8 -89.001 24c-32 14.667 -50.667 22 -56 22c-14.667 0 -22 -6.66699 -22 -20c0 -3.33301 0.333008 -5.33301 1 -6l-88 -10
c-5.33301 17.333 -8 32 -8 44c0 31.333 11 56.833 33 76.5s51.667 29.5 89 29.5c24.667 0 54.334 -8 89.001 -24c32 -14.667 50.667 -22 56 -22c14.667 0 22 6.66699 22 20c0 3.33301 -0.333008 5.33301 -1 6z" />
    <glyph glyph-name="Imacron" unicode="&#x12a;" horiz-adv-x="304" 
d="M233 0h-162v700h162v-700zM341 771h-378v104h378v-104z" />
    <glyph glyph-name="imacron" unicode="&#x12b;" horiz-adv-x="288" 
d="M225 0h-162v536h162v-536zM324 610h-360v108h360v-108z" />
    <glyph glyph-name="Ibreve" unicode="&#x12c;" horiz-adv-x="304" 
d="M233 0h-162v700h162v-700zM211 910h114.004c0.666992 -2.66699 1 -7.33398 1 -14.001c0 -47.333 -16.833 -86.333 -50.5 -117s-74.834 -46 -123.501 -46s-89.834 15.333 -123.501 46s-50.5 69.667 -50.5 117c0 6.66699 0.333008 11.334 1 14.001h114
c-0.666992 -4 -1 -9.33301 -1 -16c0 -16.667 5.66699 -30.334 17 -41.001s25.666 -16 42.999 -16s31.666 5.33301 42.999 16s17 24.334 17 41.001c0 6.66699 -0.333008 12 -1 16z" />
    <glyph glyph-name="ibreve" unicode="&#x12d;" horiz-adv-x="288" 
d="M225 0h-162v536h162v-536zM203 780h113.998c0.666992 -2.66699 1 -7.33398 1 -14.001c0 -48 -17 -88.5 -51 -121.5s-75 -49.5 -123 -49.5s-89 16.5 -123 49.5s-51 73.5 -51 121.5c0 6.66699 0.333008 11.334 1 14.001h114c-0.666992 -4 -1 -9.33301 -1 -16
c0 -17.333 5.83301 -32.5 17.5 -45.5s25.834 -19.5 42.501 -19.5s30.834 6.5 42.501 19.5s17.5 28.167 17.5 45.5c0 6.66699 -0.333008 12 -1 16z" />
    <glyph glyph-name="Iogonek" unicode="&#x12e;" horiz-adv-x="304" 
d="M71 6l0.000976562 694h162v-700c-36.667 -7.33301 -65.167 -17.333 -85.5 -30s-30.5 -30.667 -30.5 -54c0 -26 17.333 -39 52 -39c15.333 0 31.666 4.33301 48.999 13l33 -89c-34 -19.333 -74 -29 -120 -29c-40.667 0 -74.667 10.5 -102 31.5s-41 47.167 -41 78.5
c0 26 7.33301 50 22 72s35 39.333 61 52z" />
    <glyph glyph-name="iogonek" unicode="&#x12f;" horiz-adv-x="288" 
d="M63 6l0.000976562 530h162v-536c-36.667 -7.33301 -65.167 -17.333 -85.5 -30s-30.5 -30.667 -30.5 -54c0 -26 17.333 -39 52 -39c15.333 0 31.666 4.33301 48.999 13l33 -89c-34 -19.333 -74 -29 -120 -29c-40.667 0 -74.667 10.5 -102 31.5s-41 47.167 -41 78.5
c0 26 7.33301 50 22 72s35 39.333 61 52zM225.001 600h-162v128h162v-128z" />
    <glyph glyph-name="Idotaccent" unicode="&#x130;" horiz-adv-x="304" 
d="M233 761h-162v124h162v-124zM233 0h-162v700h162v-700z" />
    <glyph glyph-name="dotlessi" unicode="&#x131;" horiz-adv-x="288" 
d="M225 0h-162v536h162v-536z" />
    <glyph glyph-name="IJ" unicode="&#x132;" horiz-adv-x="685" 
d="M233 0h-162v700h162v-700zM617 700l0.000976562 -510c0 -74 -16.667 -126.667 -50 -158c-30.667 -29.333 -77.334 -44 -140.001 -44c-50.667 0 -98 12 -142 36l51 126c24.667 -14.667 49 -22 73 -22c19.333 0 32.333 6.66699 39 20c4.66699 10 7 30 7 60v492h162z" />
    <glyph glyph-name="ij" unicode="&#x133;" horiz-adv-x="582" 
d="M225 0h-162v536h162v-536zM225 600h-162v128h162v-128zM519 600h-162v128h162v-128zM519 536v-570c0 -64 -13.667 -111.667 -41 -143c-30 -34.667 -81 -52 -153 -52c-40 0 -80 7.33301 -120 22l42 126c19.333 -8 40.333 -12 63 -12c19.333 0 32 5.66699 38 17s9 28 9 50
v562h162z" />
    <glyph glyph-name="Jcircumflex" unicode="&#x134;" horiz-adv-x="342" 
d="M278 700l0.000976562 -510c0 -74 -16.667 -126.667 -50 -158c-30.667 -29.333 -77.334 -44 -140.001 -44c-50.667 0 -98 12 -142 36l51 126c24.667 -14.667 49 -22 73 -22c19.333 0 32.333 6.66699 39 20c4.66699 10 7 30 7 60v492h162zM111.001 949h176l111 -146
l-93 -67l-109 119l-111 -119l-91 67z" />
    <glyph glyph-name="jcircumflex" unicode="&#x135;" horiz-adv-x="294" 
d="M231 536v-570c0 -64 -13.667 -111.667 -41 -143c-30 -34.667 -81 -52 -153 -52c-40 0 -80 7.33301 -120 22l42 126c18.667 -8 39.667 -12 63 -12c19.333 0 32 5.66699 38 17s9 28 9 50v562h162zM70 819h162l115 -174l-88 -53l-110 132l-108 -132l-88 53z" />
    <glyph glyph-name="Kcommaaccent" unicode="&#x136;" horiz-adv-x="647" 
d="M641 700l-239 -285l241 -415h-187l-163 286l-60 -71v-215h-162v700h162v-261l213 261h195zM328 -256h-120l36 197h143z" />
    <glyph glyph-name="kcommaaccent" unicode="&#x137;" horiz-adv-x="571" 
d="M576 0h-198l-113 184l-40 -47v-137h-162v750h162v-414h1l158 200h181l-193 -226zM287 -256h-120l36 197h143z" />
    <glyph glyph-name="kgreenlandic" unicode="&#x138;" horiz-adv-x="571" 
d="M63 536h162v-200h1l158 200h181l-193 -226l204 -310h-198l-113 184l-40 -47v-137h-162v536z" />
    <glyph glyph-name="Lacute" unicode="&#x139;" horiz-adv-x="517" 
d="M513 0h-442v700h162v-566h280v-134zM390 859l-185 -128l-72 90l175 147z" />
    <glyph glyph-name="lacute" unicode="&#x13a;" horiz-adv-x="288" 
d="M225 750v-750h-162v750h162zM314 903l-185 -128l-72 90l175 147z" />
    <glyph glyph-name="Lcommaaccent" unicode="&#x13b;" horiz-adv-x="517" 
d="M513 0h-442v700h162v-566h280v-134zM308 -256h-120l36 197h143z" />
    <glyph glyph-name="lcommaaccent" unicode="&#x13c;" horiz-adv-x="288" 
d="M225 750v-750h-162v750h162zM149 -256h-120l36 197h143z" />
    <glyph glyph-name="Lcaron" unicode="&#x13d;" horiz-adv-x="517" 
d="M513 0h-442v700h162v-566h280v-134zM475 477h-135l45 223h149z" />
    <glyph glyph-name="lcaron" unicode="&#x13e;" horiz-adv-x="368" 
d="M391 527h-135l45 223h149zM225 750v-750h-162v750h162z" />
    <glyph glyph-name="Ldot" unicode="&#x13f;" horiz-adv-x="534" 
d="M513 0h-442v700h162v-566h280v-134zM486 311h-162v124h162v-124z" />
    <glyph glyph-name="ldot" unicode="&#x140;" horiz-adv-x="465" 
d="M225 750v-750h-162v750h162zM454 314h-162v128h162v-128z" />
    <glyph glyph-name="Lslash" unicode="&#x141;" horiz-adv-x="517" 
d="M513 0h-442v229l-83 -54v153l83 54v318h162v-231l138 90v-153l-138 -90v-182h280v-134z" />
    <glyph glyph-name="lslash" unicode="&#x142;" horiz-adv-x="288" 
d="M225 750v-257l68 44v-157l-68 -44v-336h-162v263l-68 -44v157l68 44v330h162z" />
    <glyph glyph-name="Nacute" unicode="&#x143;" horiz-adv-x="746" 
d="M675 0h-146l-296 406v-406h-162v700h143l299 -408v408h162v-700zM538 859l-185 -128l-72 90l175 147z" />
    <glyph glyph-name="nacute" unicode="&#x144;" horiz-adv-x="622" 
d="M63 536h136.001l14 -69c40.667 54 95.334 81 164.001 81c53.333 0 99.333 -23.667 138 -71c20 -25.333 33 -53.5 39 -84.5s9 -69.167 9 -114.5v-278h-162v272c0 50.667 -4 85 -12 103c-10.667 24.667 -32 37 -64 37c-18.667 0 -37.334 -5 -56.001 -15
s-33.334 -23.667 -44.001 -41v-356h-162v536zM489.001 759l-152 -177l-92 70l137 192z" />
    <glyph glyph-name="Ncommaaccent" unicode="&#x145;" horiz-adv-x="746" 
d="M675 0h-146l-296 406v-406h-162v700h143l299 -408v408h162v-700zM392 -256h-120l36 197h143z" />
    <glyph glyph-name="ncommaaccent" unicode="&#x146;" horiz-adv-x="622" 
d="M63 536h136.001l14 -69c40.667 54 95.334 81 164.001 81c53.333 0 99.333 -23.667 138 -71c20 -25.333 33 -53.5 39 -84.5s9 -69.167 9 -114.5v-278h-162v272c0 50.667 -4 85 -12 103c-10.667 24.667 -32 37 -64 37c-18.667 0 -37.334 -5 -56.001 -15
s-33.334 -23.667 -44.001 -41v-356h-162v536zM323.001 -256h-120l36 197h143z" />
    <glyph glyph-name="Ncaron" unicode="&#x147;" horiz-adv-x="746" 
d="M675 0h-146l-296 406v-406h-162v700h143l299 -408v408h162v-700zM467 743h-176l-111 146l94 67l109 -119l111 119l90 -67z" />
    <glyph glyph-name="ncaron" unicode="&#x148;" horiz-adv-x="622" 
d="M63 536h136.001l14 -69c40.667 54 95.334 81 164.001 81c53.333 0 99.333 -23.667 138 -71c20 -25.333 33 -53.5 39 -84.5s9 -69.167 9 -114.5v-278h-162v272c0 50.667 -4 85 -12 103c-10.667 24.667 -32 37 -64 37c-18.667 0 -37.334 -5 -56.001 -15
s-33.334 -23.667 -44.001 -41v-356h-162v536zM412.001 604h-162l-115 174l89 53l110 -132l108 132l87 -53z" />
    <glyph glyph-name="napostrophe" unicode="&#x149;" horiz-adv-x="672" 
d="M113 536h136.001l14 -69c40.667 54 95.334 81 164.001 81c53.333 0 99.333 -23.667 138 -71c20 -25.333 33 -53.5 39 -84.5s9 -69.167 9 -114.5v-278h-162v272c0 50.667 -4 85 -12 103c-10.667 24.667 -32 37 -64 37c-18.667 0 -37.334 -5 -56.001 -15
s-33.334 -23.667 -44.001 -41v-356h-162v536zM81.001 506h-120l36 197h143z" />
    <glyph glyph-name="Eng" unicode="&#x14a;" horiz-adv-x="746" 
d="M675 -25c0 -74 -16.666 -126.667 -49.999 -158c-30.667 -29.333 -77.334 -44 -140.001 -44c-50.667 0 -98 12 -142 36l51 126c24.667 -14.667 49 -22 73 -22c19.333 0 32.333 6.66699 39 20c4.66699 10 7 30 7 60v29l-280 384v-406h-162v700h143l299 -408v408h162v-725z
" />
    <glyph glyph-name="eng" unicode="&#x14b;" horiz-adv-x="622" 
d="M63 536h136.001l14 -69c40.667 54 95.334 81 164.001 81c53.333 0 99.333 -23.667 138 -71c20 -25.333 33 -53.5 39 -84.5s9 -69.167 9 -114.5v-312c0 -64 -13.667 -111.667 -41 -143c-30 -34.667 -81 -52 -153 -52c-40 0 -80 7.33301 -120 22l42 126
c19.333 -8 40.333 -12 63 -12c19.333 0 32 5.66699 38 17s9 28 9 50v298c0 50.667 -4 85 -12 103c-10.667 24.667 -32 37 -64 37c-18.667 0 -37.334 -5 -56.001 -15s-33.334 -23.667 -44.001 -41v-356h-162v536z" />
    <glyph glyph-name="Omacron" unicode="&#x14c;" horiz-adv-x="828" 
d="M611 350c0 62.667 -18.667 115.334 -56 158.001s-84.333 64 -141 64s-103.667 -21.333 -141 -64s-56 -95.334 -56 -158.001s18.667 -115.334 56 -158.001s84.333 -64 141 -64s103.667 21.333 141 64s56 95.334 56 158.001zM783 350
c0 -100.667 -35.5 -186.167 -106.5 -256.5s-158.5 -105.5 -262.5 -105.5s-191.5 35.167 -262.5 105.5s-106.5 155.833 -106.5 256.5s35.5 186.167 106.5 256.5s158.5 105.5 262.5 105.5s191.5 -35.167 262.5 -105.5s106.5 -155.833 106.5 -256.5zM603 771h-378v104h378v-104
z" />
    <glyph glyph-name="omacron" unicode="&#x14d;" horiz-adv-x="626" 
d="M313 548c82 0 149.667 -26.667 203 -80s80 -120 80 -200s-26.667 -146.667 -80 -200s-121 -80 -203 -80s-149.667 26.667 -203 80s-80 120 -80 200s26.667 146.667 80 200s121 80 203 80zM432 268c0 41.333 -11 75.666 -33 102.999s-50.667 41 -86 41
s-64 -13.667 -86 -41s-33 -61.666 -33 -102.999s11 -75.666 33 -102.999s50.667 -41 86 -41s64 13.667 86 41s33 61.666 33 102.999zM493 610h-360v108h360v-108z" />
    <glyph glyph-name="Obreve" unicode="&#x14e;" horiz-adv-x="828" 
d="M611 350c0 62.667 -18.667 115.334 -56 158.001s-84.333 64 -141 64s-103.667 -21.333 -141 -64s-56 -95.334 -56 -158.001s18.667 -115.334 56 -158.001s84.333 -64 141 -64s103.667 21.333 141 64s56 95.334 56 158.001zM783 350
c0 -100.667 -35.5 -186.167 -106.5 -256.5s-158.5 -105.5 -262.5 -105.5s-191.5 35.167 -262.5 105.5s-106.5 155.833 -106.5 256.5s35.5 186.167 106.5 256.5s158.5 105.5 262.5 105.5s191.5 -35.167 262.5 -105.5s106.5 -155.833 106.5 -256.5zM473 910h114.004
c0.666992 -2.66699 1 -7.33398 1 -14.001c0 -47.333 -16.833 -86.333 -50.5 -117s-74.834 -46 -123.501 -46s-89.834 15.333 -123.501 46s-50.5 69.667 -50.5 117c0 6.66699 0.333008 11.334 1 14.001h114c-0.666992 -4 -1 -9.33301 -1 -16
c0 -16.667 5.66699 -30.334 17 -41.001s25.666 -16 42.999 -16s31.666 5.33301 42.999 16s17 24.334 17 41.001c0 6.66699 -0.333008 12 -1 16z" />
    <glyph glyph-name="obreve" unicode="&#x14f;" horiz-adv-x="626" 
d="M313 548c82 0 149.667 -26.667 203 -80s80 -120 80 -200s-26.667 -146.667 -80 -200s-121 -80 -203 -80s-149.667 26.667 -203 80s-80 120 -80 200s26.667 146.667 80 200s121 80 203 80zM432 268c0 41.333 -11 75.666 -33 102.999s-50.667 41 -86 41
s-64 -13.667 -86 -41s-33 -61.666 -33 -102.999s11 -75.666 33 -102.999s50.667 -41 86 -41s64 13.667 86 41s33 61.666 33 102.999zM372 780h113.998c0.666992 -2.66699 1 -7.33398 1 -14.001c0 -48 -17 -88.5 -51 -121.5s-75 -49.5 -123 -49.5s-89 16.5 -123 49.5
s-51 73.5 -51 121.5c0 6.66699 0.333008 11.334 1 14.001h114c-0.666992 -4 -1 -9.33301 -1 -16c0 -17.333 5.83301 -32.5 17.5 -45.5s25.834 -19.5 42.501 -19.5s30.834 6.5 42.501 19.5s17.5 28.167 17.5 45.5c0 6.66699 -0.333008 12 -1 16z" />
    <glyph glyph-name="Ohungarumlaut" unicode="&#x150;" horiz-adv-x="828" 
d="M611 350c0 62.667 -18.667 115.334 -56 158.001s-84.333 64 -141 64s-103.667 -21.333 -141 -64s-56 -95.334 -56 -158.001s18.667 -115.334 56 -158.001s84.333 -64 141 -64s103.667 21.333 141 64s56 95.334 56 158.001zM783 350
c0 -100.667 -35.5 -186.167 -106.5 -256.5s-158.5 -105.5 -262.5 -105.5s-191.5 35.167 -262.5 105.5s-106.5 155.833 -106.5 256.5s35.5 186.167 106.5 256.5s158.5 105.5 262.5 105.5s191.5 -35.167 262.5 -105.5s106.5 -155.833 106.5 -256.5zM726 856l-181 -125l-72 90
l171 144zM470 859l-185 -128l-72 90l175 147z" />
    <glyph glyph-name="ohungarumlaut" unicode="&#x151;" horiz-adv-x="626" 
d="M313 548c82 0 149.667 -26.667 203 -80s80 -120 80 -200s-26.667 -146.667 -80 -200s-121 -80 -203 -80s-149.667 26.667 -203 80s-80 120 -80 200s26.667 146.667 80 200s121 80 203 80zM432 268c0 41.333 -11 75.666 -33 102.999s-50.667 41 -86 41
s-64 -13.667 -86 -41s-33 -61.666 -33 -102.999s11 -75.666 33 -102.999s50.667 -41 86 -41s64 13.667 86 41s33 61.666 33 102.999zM405 764l-152 -177l-88 66l137 192zM622 754l-148 -172l-92 70l133 187z" />
    <glyph glyph-name="OE" unicode="&#x152;" horiz-adv-x="1053" 
d="M1004 0h-460.001v13c-45.333 -16.667 -88.666 -25 -129.999 -25c-104 0 -191.5 35.167 -262.5 105.5s-106.5 155.833 -106.5 256.5s35.5 186.167 106.5 256.5s158.5 105.5 262.5 105.5c42 0 85.333 -8.66699 130 -26v14h460v-134h-298v-139h298v-134h-298v-159h298v-134z
M543.999 173v353.002c-34.667 30.667 -78 46 -130 46c-56.667 0 -103.667 -21.333 -141 -64s-56 -95.334 -56 -158.001s18.667 -115.334 56 -158.001s84.333 -64 141 -64c52.667 0 96 15 130 45z" />
    <glyph glyph-name="oe" unicode="&#x153;" horiz-adv-x="997" 
d="M950 122c-34 -46.667 -69.668 -80.668 -107.001 -102.001s-84.333 -32 -141 -32c-81.333 0 -146 25.667 -194 77c-50 -51.333 -115 -77 -195 -77c-82 0 -149.667 26.667 -203 80s-80 120 -80 200s26.667 146.667 80 200s121 80 203 80
c82.667 0 149.334 -27.333 200.001 -82c50.667 54.667 114 82 190 82c75.333 0 138 -23.333 188 -70s75 -105.667 75 -177c0 -19.333 -2.33301 -43.666 -7 -72.999h-366c5.33301 -34 18.5 -61.167 39.5 -81.5s47.833 -30.5 80.5 -30.5c32 0 57.167 6 75.5 18
s37.5 31.667 57.5 59zM431.999 267.999c0 41.333 -11 75.666 -33 102.999s-50.667 41 -86 41s-64 -13.667 -86 -41s-33 -61.666 -33 -102.999s11 -75.666 33 -102.999s50.667 -41 86 -41s64 13.667 86 41s33 61.666 33 102.999zM598.999 333.999l202.999 -0.000976562
c-1.33301 28.667 -10.666 50.834 -27.999 66.501s-39.333 23.5 -66 23.5c-56.667 0 -93 -30 -109 -90z" />
    <glyph glyph-name="Racute" unicode="&#x154;" horiz-adv-x="642" 
d="M71 0l0.00195312 700.001h228c30.667 0 60.667 -4 90 -12s57.166 -20 83.499 -36s47.666 -38.333 63.999 -67s24.5 -61.334 24.5 -98.001c0 -48.667 -13.5 -89.167 -40.5 -121.5s-61.833 -56.833 -104.5 -73.5l211 -292h-202l-185 273h-7v-273h-162zM233.002 566.001
v-159h43c34 0 61.333 6.33301 82 19s31 32 31 58c0 24.667 -8.66699 44.5 -26 59.5s-40 22.5 -68 22.5h-62zM510.002 859.001l-185 -128l-72 90l175 147z" />
    <glyph glyph-name="racute" unicode="&#x155;" horiz-adv-x="381" 
d="M200 536l14.001 -64c33.333 50.667 73.666 76 120.999 76c26 0 50 -4.66699 72 -14l-40 -134c-14.667 8 -31.667 12 -51 12c-18 0 -35.333 -4.5 -52 -13.5s-29.667 -20.833 -39 -35.5v-363h-162v536h137zM400.001 759l-152 -177l-92 70l137 192z" />
    <glyph glyph-name="Rcommaaccent" unicode="&#x156;" horiz-adv-x="642" 
d="M71 0l0.00195312 700.001h228c30.667 0 60.667 -4 90 -12s57.166 -20 83.499 -36s47.666 -38.333 63.999 -67s24.5 -61.334 24.5 -98.001c0 -48.667 -13.5 -89.167 -40.5 -121.5s-61.833 -56.833 -104.5 -73.5l211 -292h-202l-185 273h-7v-273h-162zM233.002 566.001
v-159h43c34 0 61.333 6.33301 82 19s31 32 31 58c0 24.667 -8.66699 44.5 -26 59.5s-40 22.5 -68 22.5h-62zM321.002 -255.999h-120l36 197h143z" />
    <glyph glyph-name="rcommaaccent" unicode="&#x157;" horiz-adv-x="381" 
d="M200 536l14.001 -64c33.333 50.667 73.666 76 120.999 76c26 0 50 -4.66699 72 -14l-40 -134c-14.667 8 -31.667 12 -51 12c-18 0 -35.333 -4.5 -52 -13.5s-29.667 -20.833 -39 -35.5v-363h-162v536h137zM149.001 -256h-120l36 197h143z" />
    <glyph glyph-name="Rcaron" unicode="&#x158;" horiz-adv-x="642" 
d="M71 0l0.00195312 700.001h228c30.667 0 60.667 -4 90 -12s57.166 -20 83.499 -36s47.666 -38.333 63.999 -67s24.5 -61.334 24.5 -98.001c0 -48.667 -13.5 -89.167 -40.5 -121.5s-61.833 -56.833 -104.5 -73.5l211 -292h-202l-185 273h-7v-273h-162zM233.002 566.001
v-159h43c34 0 61.333 6.33301 82 19s31 32 31 58c0 24.667 -8.66699 44.5 -26 59.5s-40 22.5 -68 22.5h-62zM392.002 743.001h-176l-111 146l94 67l109 -119l111 119l90 -67z" />
    <glyph glyph-name="rcaron" unicode="&#x159;" horiz-adv-x="381" 
d="M200 536l14.001 -64c33.333 50.667 73.666 76 120.999 76c26 0 50 -4.66699 72 -14l-40 -134c-14.667 8 -31.667 12 -51 12c-18 0 -35.333 -4.5 -52 -13.5s-29.667 -20.833 -39 -35.5v-363h-162v536h137zM312.001 604h-162l-115 174l89 53l110 -132l108 132l87 -53z" />
    <glyph glyph-name="Sacute" unicode="&#x15a;" horiz-adv-x="609" 
d="M457 511c-52 43.333 -100.332 64.9961 -144.999 64.9961c-20 0 -37.667 -5.33301 -53 -16s-23 -25.334 -23 -44.001c0 -10 1.83301 -18.667 5.5 -26s10.667 -14 21 -20s18 -10.167 23 -12.5s15.5 -6.16602 31.5 -11.499l27 -9c25.333 -8.66699 46 -16.167 62 -22.5
s35.167 -16.166 57.5 -29.499s39.833 -27.5 52.5 -42.5s23.834 -34.5 33.501 -58.5s14.5 -50.667 14.5 -80c0 -36 -8 -68.167 -24 -96.5s-37.333 -51 -64 -68s-55.667 -29.833 -87 -38.5s-63.666 -13 -96.999 -13c-102 0 -193 40.667 -273 122l105 103
c23.333 -22 41 -37.667 53 -47s28.667 -18.666 50 -27.999s43.666 -14 66.999 -14c27.333 0 50.5 6.5 69.5 19.5s28.5 32.167 28.5 57.5c0 10.667 -2.83301 20.5 -8.5 29.5s-11.5 16.5 -17.5 22.5s-16.333 12.5 -31 19.5s-25.5 11.833 -32.5 14.5
s-19.833 7.33398 -38.5 14.001c-22.667 8.66699 -41.334 16.334 -56.001 23.001s-31.334 16.167 -50.001 28.5s-33.5 25.333 -44.5 39s-20.333 31.167 -28 52.5s-11.5 45 -11.5 71c0 62.667 23.333 111 70 145s102 51 166 51c82.667 0 162 -28.667 238 -86zM498.001 858.996
l-185 -128l-72 90l175 147z" />
    <glyph glyph-name="sacute" unicode="&#x15b;" horiz-adv-x="492" 
d="M452 473l-86.998 -96.001c-33.333 30.667 -68.333 46 -105 46c-11.333 0 -21.333 -2.66699 -30 -8s-13 -12.333 -13 -21c0 -14 6.5 -25.667 19.5 -35s32.833 -19.666 59.5 -30.999c20.667 -8.66699 35.167 -14.834 43.5 -18.501s21.5 -10.834 39.5 -21.501s31 -21 39 -31
s15.667 -23.333 23 -40s11 -35 11 -55c0 -55.333 -20.667 -98.166 -62 -128.499s-90.666 -45.5 -147.999 -45.5c-84 0 -159.667 31.667 -227 95l88 96c24 -23.333 45.333 -40.166 64 -50.499s40.667 -15.5 66 -15.5c13.333 0 26.333 3 39 9s19 14.667 19 26
c0 4.66699 -0.833008 9.16699 -2.5 13.5s-4.5 8.5 -8.5 12.5s-7.83301 7.5 -11.5 10.5s-9.16699 6.33301 -16.5 10l-18 9c-4.66699 2.33301 -11.834 5.66602 -21.501 9.99902s-16.834 7.5 -21.501 9.5c-18.667 8.66699 -34.334 16.834 -47.001 24.501s-26 17.667 -40 30
s-24.5 27.333 -31.5 45s-10.5 37.5 -10.5 59.5c0 52 19.5 92.667 58.5 122s85.5 44 139.5 44c76 0 140 -25 192 -75zM456.002 758.999l-152 -177l-92 70l137 192z" />
    <glyph glyph-name="Scircumflex" unicode="&#x15c;" horiz-adv-x="609" 
d="M457 511c-52 43.333 -100.332 64.9961 -144.999 64.9961c-20 0 -37.667 -5.33301 -53 -16s-23 -25.334 -23 -44.001c0 -10 1.83301 -18.667 5.5 -26s10.667 -14 21 -20s18 -10.167 23 -12.5s15.5 -6.16602 31.5 -11.499l27 -9c25.333 -8.66699 46 -16.167 62 -22.5
s35.167 -16.166 57.5 -29.499s39.833 -27.5 52.5 -42.5s23.834 -34.5 33.501 -58.5s14.5 -50.667 14.5 -80c0 -36 -8 -68.167 -24 -96.5s-37.333 -51 -64 -68s-55.667 -29.833 -87 -38.5s-63.666 -13 -96.999 -13c-102 0 -193 40.667 -273 122l105 103
c23.333 -22 41 -37.667 53 -47s28.667 -18.666 50 -27.999s43.666 -14 66.999 -14c27.333 0 50.5 6.5 69.5 19.5s28.5 32.167 28.5 57.5c0 10.667 -2.83301 20.5 -8.5 29.5s-11.5 16.5 -17.5 22.5s-16.333 12.5 -31 19.5s-25.5 11.833 -32.5 14.5
s-19.833 7.33398 -38.5 14.001c-22.667 8.66699 -41.334 16.334 -56.001 23.001s-31.334 16.167 -50.001 28.5s-33.5 25.333 -44.5 39s-20.333 31.167 -28 52.5s-11.5 45 -11.5 71c0 62.667 23.333 111 70 145s102 51 166 51c82.667 0 162 -28.667 238 -86zM220.001 948.996
h176l111 -146l-93 -67l-109 119l-111 -119l-91 67z" />
    <glyph glyph-name="scircumflex" unicode="&#x15d;" horiz-adv-x="492" 
d="M452 473l-86.998 -96.001c-33.333 30.667 -68.333 46 -105 46c-11.333 0 -21.333 -2.66699 -30 -8s-13 -12.333 -13 -21c0 -14 6.5 -25.667 19.5 -35s32.833 -19.666 59.5 -30.999c20.667 -8.66699 35.167 -14.834 43.5 -18.501s21.5 -10.834 39.5 -21.501s31 -21 39 -31
s15.667 -23.333 23 -40s11 -35 11 -55c0 -55.333 -20.667 -98.166 -62 -128.499s-90.666 -45.5 -147.999 -45.5c-84 0 -159.667 31.667 -227 95l88 96c24 -23.333 45.333 -40.166 64 -50.499s40.667 -15.5 66 -15.5c13.333 0 26.333 3 39 9s19 14.667 19 26
c0 4.66699 -0.833008 9.16699 -2.5 13.5s-4.5 8.5 -8.5 12.5s-7.83301 7.5 -11.5 10.5s-9.16699 6.33301 -16.5 10l-18 9c-4.66699 2.33301 -11.834 5.66602 -21.501 9.99902s-16.834 7.5 -21.501 9.5c-18.667 8.66699 -34.334 16.834 -47.001 24.501s-26 17.667 -40 30
s-24.5 27.333 -31.5 45s-10.5 37.5 -10.5 59.5c0 52 19.5 92.667 58.5 122s85.5 44 139.5 44c76 0 140 -25 192 -75zM177.002 818.999h162l115 -174l-88 -53l-110 132l-108 -132l-88 53z" />
    <glyph glyph-name="Scedilla" unicode="&#x15e;" horiz-adv-x="609" 
d="M457 511c-52 43.333 -100.328 64.9961 -144.995 64.9961c-20 0 -37.667 -5.33301 -53 -16s-23 -25.334 -23 -44.001c0 -10 1.83301 -18.667 5.5 -26s10.667 -14 21 -20s18 -10.167 23 -12.5s15.5 -6.16602 31.5 -11.499l27 -9c25.333 -8.66699 46 -16.167 62 -22.5
s35.167 -16.166 57.5 -29.499s39.833 -27.5 52.5 -42.5s23.834 -34.5 33.501 -58.5s14.5 -50.667 14.5 -80c0 -67.333 -25.667 -119.5 -77 -156.5s-112 -56.833 -182 -59.5l-18 -47h1c13.333 10 28.666 15 45.999 15c25.333 0 47.666 -10 66.999 -30s29 -44.667 29 -74
c0 -30 -11.333 -56.333 -34 -79s-50.334 -34 -83.001 -34c-52.667 0 -92.667 24.667 -120 74l73 34c9.33301 -21.333 22 -32 38 -32c10.667 0 19.167 3.33301 25.5 10s9.5 15 9.5 25s-3.33301 18.667 -10 26s-14.667 11 -24 11c-15.333 0 -27.333 -6 -36 -18l-78 39l38 85
c-77.333 13.333 -147.333 52.333 -210 117l105 103c23.333 -22 41 -37.667 53 -47s28.667 -18.666 50 -27.999s43.666 -14 66.999 -14c27.333 0 50.5 6.5 69.5 19.5s28.5 32.167 28.5 57.5c0 10.667 -2.83301 20.5 -8.5 29.5s-11.5 16.5 -17.5 22.5s-16.333 12.5 -31 19.5
s-25.5 11.833 -32.5 14.5s-19.833 7.33398 -38.5 14.001c-22.667 8.66699 -41.334 16.334 -56.001 23.001s-31.334 16.167 -50.001 28.5s-33.5 25.333 -44.5 39s-20.333 31.167 -28 52.5s-11.5 45 -11.5 71c0 62.667 23.333 111 70 145s102 51 166 51
c82.667 0 162 -28.667 238 -86z" />
    <glyph glyph-name="scedilla" unicode="&#x15f;" horiz-adv-x="492" 
d="M452 473l-86.9941 -96.001c-33.333 30.667 -68.333 46 -105 46c-11.333 0 -21.333 -2.66699 -30 -8s-13 -12.333 -13 -21c0 -14 6.5 -25.667 19.5 -35s32.833 -19.666 59.5 -30.999c20.667 -8.66699 35.167 -14.834 43.5 -18.501s21.5 -10.834 39.5 -21.501
s31 -21 39 -31s15.667 -23.333 23 -40s11 -35 11 -55c0 -54 -19.667 -96.167 -59 -126.5s-87.333 -46.166 -144 -47.499l-18 -47h1c13.333 10 28.666 15 45.999 15c25.333 0 47.666 -10 66.999 -30s29 -44.667 29 -74c0 -30 -11.333 -56.333 -34 -79
s-50.334 -34 -83.001 -34c-52.667 0 -92.667 24.667 -120 74l73 34c9.33301 -21.333 22 -32 38 -32c10.667 0 19.167 3.33301 25.5 10s9.5 15 9.5 25s-3.33301 18.667 -10 26s-14.667 11 -24 11c-15.333 0 -27.333 -6 -36 -18l-78 39l39 88c-58 12 -111 41 -159 87l88 96
c24 -23.333 45.333 -40.166 64 -50.499s40.667 -15.5 66 -15.5c13.333 0 26.333 3 39 9s19 14.667 19 26c0 4.66699 -0.833008 9.16699 -2.5 13.5s-4.5 8.5 -8.5 12.5s-7.83301 7.5 -11.5 10.5s-9.16699 6.33301 -16.5 10l-18 9
c-4.66699 2.33301 -11.834 5.66602 -21.501 9.99902s-16.834 7.5 -21.501 9.5c-18.667 8.66699 -34.334 16.834 -47.001 24.501s-26 17.667 -40 30s-24.5 27.333 -31.5 45s-10.5 37.5 -10.5 59.5c0 52 19.5 92.667 58.5 122s85.5 44 139.5 44c76 0 140 -25 192 -75z" />
    <glyph glyph-name="Scaron" unicode="&#x160;" horiz-adv-x="609" 
d="M457 511c-52 43.333 -100.332 64.9961 -144.999 64.9961c-20 0 -37.667 -5.33301 -53 -16s-23 -25.334 -23 -44.001c0 -10 1.83301 -18.667 5.5 -26s10.667 -14 21 -20s18 -10.167 23 -12.5s15.5 -6.16602 31.5 -11.499l27 -9c25.333 -8.66699 46 -16.167 62 -22.5
s35.167 -16.166 57.5 -29.499s39.833 -27.5 52.5 -42.5s23.834 -34.5 33.501 -58.5s14.5 -50.667 14.5 -80c0 -36 -8 -68.167 -24 -96.5s-37.333 -51 -64 -68s-55.667 -29.833 -87 -38.5s-63.666 -13 -96.999 -13c-102 0 -193 40.667 -273 122l105 103
c23.333 -22 41 -37.667 53 -47s28.667 -18.666 50 -27.999s43.666 -14 66.999 -14c27.333 0 50.5 6.5 69.5 19.5s28.5 32.167 28.5 57.5c0 10.667 -2.83301 20.5 -8.5 29.5s-11.5 16.5 -17.5 22.5s-16.333 12.5 -31 19.5s-25.5 11.833 -32.5 14.5
s-19.833 7.33398 -38.5 14.001c-22.667 8.66699 -41.334 16.334 -56.001 23.001s-31.334 16.167 -50.001 28.5s-33.5 25.333 -44.5 39s-20.333 31.167 -28 52.5s-11.5 45 -11.5 71c0 62.667 23.333 111 70 145s102 51 166 51c82.667 0 162 -28.667 238 -86zM391.001 742.996
h-176l-111 146l94 67l109 -119l111 119l90 -67z" />
    <glyph glyph-name="scaron" unicode="&#x161;" horiz-adv-x="492" 
d="M452 473l-86.998 -96.001c-33.333 30.667 -68.333 46 -105 46c-11.333 0 -21.333 -2.66699 -30 -8s-13 -12.333 -13 -21c0 -14 6.5 -25.667 19.5 -35s32.833 -19.666 59.5 -30.999c20.667 -8.66699 35.167 -14.834 43.5 -18.501s21.5 -10.834 39.5 -21.501s31 -21 39 -31
s15.667 -23.333 23 -40s11 -35 11 -55c0 -55.333 -20.667 -98.166 -62 -128.499s-90.666 -45.5 -147.999 -45.5c-84 0 -159.667 31.667 -227 95l88 96c24 -23.333 45.333 -40.166 64 -50.499s40.667 -15.5 66 -15.5c13.333 0 26.333 3 39 9s19 14.667 19 26
c0 4.66699 -0.833008 9.16699 -2.5 13.5s-4.5 8.5 -8.5 12.5s-7.83301 7.5 -11.5 10.5s-9.16699 6.33301 -16.5 10l-18 9c-4.66699 2.33301 -11.834 5.66602 -21.501 9.99902s-16.834 7.5 -21.501 9.5c-18.667 8.66699 -34.334 16.834 -47.001 24.501s-26 17.667 -40 30
s-24.5 27.333 -31.5 45s-10.5 37.5 -10.5 59.5c0 52 19.5 92.667 58.5 122s85.5 44 139.5 44c76 0 140 -25 192 -75zM346.002 603.999h-162l-115 174l89 53l110 -132l108 132l87 -53z" />
    <glyph glyph-name="uni0162" unicode="&#x162;" horiz-adv-x="494" 
d="M490 566h-161.997v-566h-40l-23 -59h1c13.333 10 28.666 15 45.999 15c25.333 0 47.666 -10 66.999 -30s29 -44.667 29 -74c0 -30 -11.333 -56.333 -34 -79s-50.334 -34 -83.001 -34c-52.667 0 -92.667 24.667 -120 74l73 34c9.33301 -21.333 22 -32 38 -32
c10.667 0 19.167 3.33301 25.5 10s9.5 15 9.5 25s-3.33301 18.667 -10 26s-14.667 11 -24 11c-15.333 0 -27.333 -6 -36 -18l-78 39l41 92h-44v566h-162v134h486v-134z" />
    <glyph glyph-name="uni0163" unicode="&#x163;" horiz-adv-x="392" 
d="M366 404h-131.998v-196c0 -21.333 1 -37.333 3 -48c4.66699 -24 17 -36 37 -36s39.333 5 58 15l51 -118c-38 -22 -84 -33 -138 -33c-6 0 -10.667 0.333008 -14 1l-18 -48h1c13.333 10 28.666 15 45.999 15c25.333 0 47.666 -10 66.999 -30s29 -44.667 29 -74
c0 -30 -11.333 -56.333 -34 -79s-50.334 -34 -83.001 -34c-52.667 0 -92.667 24.667 -120 74l73 34c9.33301 -21.333 22 -32 38 -32c10.667 0 19.167 3.33301 25.5 10s9.5 15 9.5 25s-3.33301 18.667 -10 26s-14.667 11 -24 11c-15.333 0 -27.333 -6 -36 -18l-78 39l44 98
c-43.333 22 -70.666 57.667 -81.999 107c-4.66699 20 -7 47.667 -7 83v208h-61v132h61l30 115h132v-115h132v-132z" />
    <glyph glyph-name="Tcaron" unicode="&#x164;" horiz-adv-x="494" 
d="M490 566h-162v-566h-162v566h-162v134h486v-134zM332 743h-176l-111 146l94 67l109 -119l111 119l90 -67z" />
    <glyph glyph-name="tcaron" unicode="&#x165;" horiz-adv-x="392" 
d="M366 404h-132v-196c0 -21.333 1 -37.333 3 -48c4.66699 -24 17 -36 37 -36s39.333 5 58 15l51 -118c-38 -22 -84 -33 -138 -33c-43.333 0 -79.5 11.167 -108.5 33.5s-48.167 52.833 -57.5 91.5c-4.66699 20 -7 47.667 -7 83v208h-61v132h61l30 115h132v-115h132v-132z
M399 602h-135l45 223h149z" />
    <glyph glyph-name="Tbar" unicode="&#x166;" horiz-adv-x="494" 
d="M490 566h-162v-142h101v-128h-101v-296h-162v296h-101v128h101v142h-162v134h486v-134z" />
    <glyph glyph-name="tbar" unicode="&#x167;" horiz-adv-x="340" 
d="M366 220h-132v-12c0 -21.333 1 -37.333 3 -48c4.66699 -24 17 -36 37 -36s39.333 5 58 15l51 -118c-38 -22 -84 -33 -138 -33c-43.333 0 -79.5 11.167 -108.5 33.5s-48.167 52.833 -57.5 91.5c-4.66699 20 -7 47.667 -7 83v24h-63v127h63v57h-61v132h61l30 115h132v-115
h132v-132h-132v-57h132v-127z" />
    <glyph glyph-name="Utilde" unicode="&#x168;" horiz-adv-x="714" 
d="M643 330c0 -112.667 -23.168 -197.833 -69.501 -255.5s-119.166 -86.5 -218.499 -86.5c-189.333 0 -284 114 -284 342v370h162v-387c0 -61.333 11 -107.5 33 -138.5s52.333 -46.5 91 -46.5s69 15.5 91 46.5s33 77.167 33 138.5v387h162v-370zM541.999 889.001
c4.66699 -14.667 7 -29.333 7 -44c0 -32 -11 -57.667 -33 -77s-51.333 -29 -88 -29c-24.667 0 -54.334 8 -89.001 24c-32 14.667 -50.667 22 -56 22c-14.667 0 -22 -6.66699 -22 -20c0 -2.66699 0.333008 -4.66699 1 -6l-88 -10c-5.33301 17.333 -8 32 -8 44
c0 31.333 11 56.833 33 76.5s51.667 29.5 89 29.5c24.667 0 54.334 -8 89.001 -24c32 -14.667 50.667 -22 56 -22c14.667 0 22 6.66699 22 20c0 2.66699 -0.333008 4.66699 -1 6z" />
    <glyph glyph-name="utilde" unicode="&#x169;" horiz-adv-x="622" 
d="M559 0h-136.001l-14 69c-40.667 -54 -95.334 -81 -164.001 -81c-53.333 0 -99.333 23.667 -138 71c-20 25.333 -33 53.5 -39 84.5s-9 69.167 -9 114.5v278h162v-272c0 -50.667 4 -85 12 -103c10.667 -24.667 32 -37 64 -37c18.667 0 37.334 5 56.001 15
s33.334 23.667 44.001 41v356h162v-536zM504.999 741c4.66699 -14.667 7 -29.333 7 -44c0 -32 -11 -57.667 -33 -77s-51.333 -29 -88 -29c-24.667 0 -54.334 8 -89.001 24c-32 14.667 -50.667 22 -56 22c-14.667 0 -22 -6.66699 -22 -20c0 -3.33301 0.333008 -5.33301 1 -6
l-88 -10c-5.33301 17.333 -8 32 -8 44c0 31.333 11 56.833 33 76.5s51.667 29.5 89 29.5c24.667 0 54.334 -8 89.001 -24c32 -14.667 50.667 -22 56 -22c14.667 0 22 6.66699 22 20c0 3.33301 -0.333008 5.33301 -1 6z" />
    <glyph glyph-name="Umacron" unicode="&#x16a;" horiz-adv-x="714" 
d="M643 330c0 -112.667 -23.168 -197.833 -69.501 -255.5s-119.166 -86.5 -218.499 -86.5c-189.333 0 -284 114 -284 342v370h162v-387c0 -61.333 11 -107.5 33 -138.5s52.333 -46.5 91 -46.5s69 15.5 91 46.5s33 77.167 33 138.5v387h162v-370zM545.999 771.001h-378v104
h378v-104z" />
    <glyph glyph-name="umacron" unicode="&#x16b;" horiz-adv-x="622" 
d="M559 0h-136.001l-14 69c-40.667 -54 -95.334 -81 -164.001 -81c-53.333 0 -99.333 23.667 -138 71c-20 25.333 -33 53.5 -39 84.5s-9 69.167 -9 114.5v278h162v-272c0 -50.667 4 -85 12 -103c10.667 -24.667 32 -37 64 -37c18.667 0 37.334 5 56.001 15
s33.334 23.667 44.001 41v356h162v-536zM488.999 610h-360v108h360v-108z" />
    <glyph glyph-name="Ubreve" unicode="&#x16c;" horiz-adv-x="714" 
d="M643 330c0 -112.667 -23.168 -197.833 -69.501 -255.5s-119.166 -86.5 -218.499 -86.5c-189.333 0 -284 114 -284 342v370h162v-387c0 -61.333 11 -107.5 33 -138.5s52.333 -46.5 91 -46.5s69 15.5 91 46.5s33 77.167 33 138.5v387h162v-370zM415.999 910.001h114.004
c0.666992 -2.66699 1 -7.33398 1 -14.001c0 -47.333 -16.833 -86.333 -50.5 -117s-74.834 -46 -123.501 -46s-89.834 15.333 -123.501 46s-50.5 69.667 -50.5 117c0 6.66699 0.333008 11.334 1 14.001h114c-0.666992 -4 -1 -9.33301 -1 -16
c0 -16.667 5.66699 -30.334 17 -41.001s25.666 -16 42.999 -16s31.666 5.33301 42.999 16s17 24.334 17 41.001c0 6.66699 -0.333008 12 -1 16z" />
    <glyph glyph-name="ubreve" unicode="&#x16d;" horiz-adv-x="622" 
d="M559 0h-136.001l-14 69c-40.667 -54 -95.334 -81 -164.001 -81c-53.333 0 -99.333 23.667 -138 71c-20 25.333 -33 53.5 -39 84.5s-9 69.167 -9 114.5v278h162v-272c0 -50.667 4 -85 12 -103c10.667 -24.667 32 -37 64 -37c18.667 0 37.334 5 56.001 15
s33.334 23.667 44.001 41v356h162v-536zM367.999 780h113.998c0.666992 -2.66699 1 -7.33398 1 -14.001c0 -48 -17 -88.5 -51 -121.5s-75 -49.5 -123 -49.5s-89 16.5 -123 49.5s-51 73.5 -51 121.5c0 6.66699 0.333008 11.334 1 14.001h114c-0.666992 -4 -1 -9.33301 -1 -16
c0 -17.333 5.83301 -32.5 17.5 -45.5s25.834 -19.5 42.501 -19.5s30.834 6.5 42.501 19.5s17.5 28.167 17.5 45.5c0 6.66699 -0.333008 12 -1 16z" />
    <glyph glyph-name="Uring" unicode="&#x16e;" horiz-adv-x="714" 
d="M643 330c0 -112.667 -23.168 -197.833 -69.501 -255.5s-119.166 -86.5 -218.499 -86.5c-189.333 0 -284 114 -284 342v370h162v-387c0 -61.333 11 -107.5 33 -138.5s52.333 -46.5 91 -46.5s69 15.5 91 46.5s33 77.167 33 138.5v387h162v-370zM235.999 834.001
c0 33.333 11.833 61.833 35.5 85.5s52.167 35.5 85.5 35.5s61.833 -11.833 85.5 -35.5s35.5 -52.167 35.5 -85.5s-11.833 -61.833 -35.5 -85.5s-52.167 -35.5 -85.5 -35.5s-61.833 11.833 -85.5 35.5s-35.5 52.167 -35.5 85.5zM310.999 834.001
c0 -13.333 4.5 -24.333 13.5 -33s19.833 -13 32.5 -13s23.5 4.33301 32.5 13s13.5 19.667 13.5 33s-4.5 24.333 -13.5 33s-19.833 13 -32.5 13s-23.5 -4.33301 -32.5 -13s-13.5 -19.667 -13.5 -33z" />
    <glyph glyph-name="uring" unicode="&#x16f;" horiz-adv-x="622" 
d="M559 0h-136.001l-14 69c-40.667 -54 -95.334 -81 -164.001 -81c-53.333 0 -99.333 23.667 -138 71c-20 25.333 -33 53.5 -39 84.5s-9 69.167 -9 114.5v278h162v-272c0 -50.667 4 -85 12 -103c10.667 -24.667 32 -37 64 -37c18.667 0 37.334 5 56.001 15
s33.334 23.667 44.001 41v356h162v-536zM187.999 701c0 33.333 11.833 61.833 35.5 85.5s52.167 35.5 85.5 35.5s61.833 -11.833 85.5 -35.5s35.5 -52.167 35.5 -85.5s-11.833 -61.833 -35.5 -85.5s-52.167 -35.5 -85.5 -35.5s-61.833 11.833 -85.5 35.5
s-35.5 52.167 -35.5 85.5zM262.999 701c0 -12.667 4.5 -23.5 13.5 -32.5s19.833 -13.5 32.5 -13.5s23.5 4.5 32.5 13.5s13.5 19.833 13.5 32.5s-4.5 23.5 -13.5 32.5s-19.833 13.5 -32.5 13.5s-23.5 -4.5 -32.5 -13.5s-13.5 -19.833 -13.5 -32.5z" />
    <glyph glyph-name="Uhungarumlaut" unicode="&#x170;" horiz-adv-x="714" 
d="M643 330c0 -112.667 -23.168 -197.833 -69.501 -255.5s-119.166 -86.5 -218.499 -86.5c-189.333 0 -284 114 -284 342v370h162v-387c0 -61.333 11 -107.5 33 -138.5s52.333 -46.5 91 -46.5s69 15.5 91 46.5s33 77.167 33 138.5v387h162v-370zM653.999 856.001l-181 -125
l-72 90l171 144zM397.999 859.001l-185 -128l-72 90l175 147z" />
    <glyph glyph-name="uhungarumlaut" unicode="&#x171;" horiz-adv-x="622" 
d="M559 0h-136.001l-14 69c-40.667 -54 -95.334 -81 -164.001 -81c-53.333 0 -99.333 23.667 -138 71c-20 25.333 -33 53.5 -39 84.5s-9 69.167 -9 114.5v278h162v-272c0 -50.667 4 -85 12 -103c10.667 -24.667 32 -37 64 -37c18.667 0 37.334 5 56.001 15
s33.334 23.667 44.001 41v356h162v-536zM394.999 764l-152 -177l-88 66l137 192zM611.999 754l-148 -172l-92 70l133 187z" />
    <glyph glyph-name="Uogonek" unicode="&#x172;" horiz-adv-x="714" 
d="M643 330c0 -176.667 -56.3311 -284.67 -168.998 -324.003c-20.667 -7.33301 -37.334 -18 -50.001 -32s-19 -29.333 -19 -46c0 -15.333 4.66699 -27.666 14 -36.999s22 -14 38 -14c15.333 0 31.666 4.33301 48.999 13l33 -89c-34 -19.333 -74 -29 -120 -29
c-40.667 0 -74.667 10.5 -102 31.5s-41 47.167 -41 78.5c0 44.667 16.333 80.334 49 107.001c-169.333 10.667 -254 124.334 -254 341.001v370h162v-387c0 -61.333 11 -107.5 33 -138.5s52.333 -46.5 91 -46.5s69 15.5 91 46.5s33 77.167 33 138.5v387h162v-370z" />
    <glyph glyph-name="uogonek" unicode="&#x173;" horiz-adv-x="622" 
d="M559 536l-0.000976562 -536c-36.667 -7.33301 -65.167 -17.333 -85.5 -30s-30.5 -30.667 -30.5 -54c0 -26 17.333 -39 52 -39c15.333 0 31.666 4.33301 48.999 13l33 -89c-34 -19.333 -74 -29 -120 -29c-40.667 0 -74.667 10.5 -102 31.5s-41 47.167 -41 78.5
c0 58.667 35.667 100 107 124l-13 62c-40.667 -53.333 -95 -80 -163 -80c-53.333 0 -99.333 23.667 -138 71c-20 25.333 -33 53.5 -39 84.5s-9 69.167 -9 114.5v278h162v-272c0 -50.667 4 -85 12 -103c10.667 -24.667 32 -37 64 -37c18.667 0 37.334 4.83301 56.001 14.5
s33.334 23.167 44.001 40.5v357h162z" />
    <glyph glyph-name="Wcircumflex" unicode="&#x174;" horiz-adv-x="966" 
d="M559 700l112 -418h2l108 418h181l-201 -700h-160l-121 432h-2l-124 -432h-153l-197 700h180l105 -418h2l117 418h151zM399 949h176l111 -146l-93 -67l-109 119l-111 -119l-91 67z" />
    <glyph glyph-name="wcircumflex" unicode="&#x175;" horiz-adv-x="817" 
d="M476 536l81 -316h2l77 316h169l-154 -536h-170l-73 282h-2l-74 -282h-174l-146 536h172l71 -317h2l84 317h135zM331 819h162l115 -174l-88 -53l-110 132l-108 -132l-88 53z" />
    <glyph glyph-name="Ycircumflex" unicode="&#x176;" horiz-adv-x="628" 
d="M387 0h-162v291l-221 409h199l109 -236h2l122 236h188l-237 -415v-285zM230 949h176l111 -146l-93 -67l-109 119l-111 -119l-91 67z" />
    <glyph glyph-name="ycircumflex" unicode="&#x177;" horiz-adv-x="552" 
d="M2 536h176l96 -295h2l99 295h175l-302 -783l-145 56l86 228zM197 819h162l115 -174l-88 -53l-110 132l-108 -132l-88 53z" />
    <glyph glyph-name="Ydieresis" unicode="&#x178;" horiz-adv-x="628" 
d="M262 761h-167v124h167v-124zM541 761h-167v124h167v-124zM387 0h-162v291l-221 409h199l109 -236h2l122 236h188l-237 -415v-285z" />
    <glyph glyph-name="Zacute" unicode="&#x179;" horiz-adv-x="568" 
d="M530 619l-284 -485h307v-134h-523v86l281 480h-273v134h492v-81zM462 859l-185 -128l-72 90l175 147z" />
    <glyph glyph-name="zacute" unicode="&#x17a;" horiz-adv-x="494" 
d="M47 75l192 329h-203v132h415v-74l-195 -330h211v-132h-420v75zM437 759l-152 -177l-92 70l137 192z" />
    <glyph glyph-name="Zdotaccent" unicode="&#x17b;" horiz-adv-x="568" 
d="M530 619l-284 -485h307v-134h-523v86l281 480h-273v134h492v-81zM349 761h-162v124h162v-124z" />
    <glyph glyph-name="zdotaccent" unicode="&#x17c;" horiz-adv-x="494" 
d="M47 75l192 329h-203v132h415v-74l-195 -330h211v-132h-420v75zM321 600h-162v128h162v-128z" />
    <glyph glyph-name="Zcaron" unicode="&#x17d;" horiz-adv-x="568" 
d="M530 619l-284 -485h307v-134h-523v86l281 480h-273v134h492v-81zM358 743h-176l-111 146l94 67l109 -119l111 119l90 -67z" />
    <glyph glyph-name="zcaron" unicode="&#x17e;" horiz-adv-x="494" 
d="M47 75l192 329h-203v132h415v-74l-195 -330h211v-132h-420v75zM337 604h-162l-115 174l89 53l110 -132l108 132l87 -53z" />
    <glyph glyph-name="longs" unicode="&#x17f;" horiz-adv-x="319" 
d="M383 728l-41 -118.001c-26.667 14 -51 21 -73 21s-36.167 -6.66699 -42.5 -20s-9.5 -32.666 -9.5 -57.999v-553h-156v559c0 64.667 14.833 114.667 44.5 150s73.5 53 131.5 53c45.333 0 94 -11.333 146 -34z" />
    <glyph glyph-name="florin" unicode="&#x192;" 
d="M124 5l32.001 286h-70v133h85l9 77c6.66699 56 26.334 99.5 59.001 130.5s75.334 46.5 128.001 46.5c52 0 105.333 -12.667 160 -38l-50 -124c-32 20 -62.667 30 -92 30c-12.667 0 -22.5 -3.66699 -29.5 -11s-11.5 -15 -13.5 -23s-4 -19.333 -6 -34l-6 -54h109v-133h-124
l-35 -309c-6.66699 -56 -26.334 -99.5 -59.001 -130.5s-75.334 -46.5 -128.001 -46.5c-34.667 0 -68.334 5 -101.001 15l32 126c16 -6 33 -9 51 -9c12.667 0 22.5 3.66699 29.5 11s11.5 15 13.5 23s4 19.333 6 34z" />
    <glyph glyph-name="Aringacute" unicode="&#x1fa;" horiz-adv-x="703" 
d="M254 822c0 30.667 11 57.167 33 79.5s48.667 33.5 80 33.5s58 -11.167 80 -33.5s33 -48.833 33 -79.5s-11 -57.167 -33 -79.5s-48.667 -33.5 -80 -33.5s-58 11.167 -80 33.5s-33 48.833 -33 79.5zM327 822c0 -10.667 3.83301 -20 11.5 -28s17.167 -12 28.5 -12
s20.833 4 28.5 12s11.5 17.333 11.5 28s-3.83301 20 -11.5 28s-17.167 12 -28.5 12s-20.833 -4 -28.5 -12s-11.5 -17.333 -11.5 -28zM523 1054l-193 -115l-52 75l186 131zM692 0h-186l-41 123h-231l-44 -123h-179l291 700h129zM353 454l-72 -202h140l-67 202h-1z" />
    <glyph glyph-name="aringacute" unicode="&#x1fb;" horiz-adv-x="586" 
d="M191 675c0 31.333 11.167 58 33.5 80s48.833 33 79.5 33s57.167 -11 79.5 -33s33.5 -48.667 33.5 -80s-11.167 -58 -33.5 -80s-48.833 -33 -79.5 -33s-57.167 11 -79.5 33s-33.5 48.667 -33.5 80zM264 675c0 -11.333 4 -20.833 12 -28.5s17.333 -11.5 28 -11.5
s20 3.83301 28 11.5s12 17.167 12 28.5s-4 20.833 -12 28.5s-17.333 11.5 -28 11.5s-20 -3.83301 -28 -11.5s-12 -17.167 -12 -28.5zM468 911l-201 -119l-51 76l191 138zM527 0l-136 0.000976562l-15 42c-28 -36 -75 -54 -141 -54c-52.667 0 -98.167 15.833 -136.5 47.5
s-57.5 73.5 -57.5 125.5c0 59.333 22.833 102.666 68.5 129.999s100.167 41 163.5 41c30 0 60.667 -3.66699 92 -11v4c0 32.667 -7.5 57.667 -22.5 75s-40.167 26 -75.5 26c-44.667 0 -97.667 -15.333 -159 -46l-42 111c77.333 38 156.333 57 237 57
c72.667 0 128.167 -20 166.5 -60s57.5 -95.667 57.5 -167v-321zM365 135.001l-0.000976562 95.001c-27.333 6 -48.666 9 -63.999 9c-28 0 -52 -6.33301 -72 -19s-30 -32.334 -30 -59.001c0 -19.333 7.16699 -35 21.5 -47s31.5 -18 51.5 -18c34 0 65 13 93 39z" />
    <glyph glyph-name="AEacute" unicode="&#x1fc;" horiz-adv-x="1018" 
d="M969 0h-460v124h-232l-82 -124h-203l517 700h460v-134h-298v-139h298v-134h-298v-159h298v-134zM363 253h146v220zM781 859l-185 -128l-72 90l175 147z" />
    <glyph glyph-name="aeacute" unicode="&#x1fd;" horiz-adv-x="931" 
d="M736 334c-1.33301 28.667 -10.667 50.833 -28 66.5s-39.333 23.5 -66 23.5c-56.667 0 -93 -30 -109 -90h203zM381.999 151.999c-9.33301 24 -15.333 50.001 -18 78.001c-27.333 6 -48.333 9 -63 9c-28 0 -52 -6.33301 -72 -19s-30 -32.334 -30 -59.001
c0 -19.333 7.16699 -35 21.5 -47s31.5 -18 51.5 -18c45.333 0 82 18.667 110 56zM883.999 122c-34 -46.667 -69.666 -80.667 -106.999 -102s-84.333 -32 -141 -32c-79.333 0 -144.333 24.667 -195 74c-32.667 -27.333 -64 -46.5 -94 -57.5s-67.333 -16.5 -112 -16.5
c-52.667 0 -98.167 15.833 -136.5 47.5s-57.5 73.5 -57.5 125.5c0 59.333 22.833 102.666 68.5 129.999s100.167 41 163.5 41c30 0 60.667 -3.66699 92 -11v4c0 32.667 -7.5 57.667 -22.5 75s-40.167 26 -75.5 26c-44.667 0 -97.667 -15.333 -159 -46l-42 111
c77.333 38 156.333 57 237 57c72 0 127 -20.667 165 -62c47.333 41.333 103.666 62 168.999 62c75.333 0 138 -23.333 188 -70s75 -105.667 75 -177c0 -19.333 -2.33301 -43.666 -7 -72.999h-366c5.33301 -34 18.5 -61.167 39.5 -81.5s47.833 -30.5 80.5 -30.5
c32 0 57.167 6 75.5 18s37.5 31.667 57.5 59zM657 759l-152 -177l-92 70l137 192z" />
    <glyph glyph-name="Oslashacute" unicode="&#x1fe;" horiz-adv-x="828" 
d="M697 662l-31.001 -46.002c36.667 -33.333 65.334 -73.166 86.001 -119.499s31 -95.166 31 -146.499c0 -100.667 -35.5 -186.167 -106.5 -256.5s-158.5 -105.5 -262.5 -105.5c-53.333 0 -103.666 10 -150.999 30l-34 -50l-103 68l33 50c-76 70.667 -114 158.667 -114 264
c0 100.667 35.5 186.167 106.5 256.5s158.5 105.5 262.5 105.5c51.333 0 100.666 -10 147.999 -30l32 48zM574.999 480.998l-230 -341.002c20.667 -8 43.667 -12 69 -12c56.667 0 103.667 21.333 141 64s56 95.334 56 158.001c0 48.667 -12 92.334 -36 131.001z
M478.999 559.996c-20 8 -41.667 12.001 -65 12.001c-56.667 0 -103.667 -21.333 -141 -64s-56 -95.334 -56 -158.001c0 -48 11.333 -90.667 34 -128zM605.999 858.997l-185 -128l-72 90l175 147z" />
    <glyph glyph-name="oslashacute" unicode="&#x1ff;" horiz-adv-x="626" 
d="M530 508l-22 -32.999c58.667 -53.333 88 -122.333 88 -207c0 -80 -26.667 -146.667 -80 -200s-121 -80 -203 -80c-42.667 0 -82 7.66699 -118 23l-29 -43l-80 53l29 42c-56.667 53.333 -85 121.666 -85 204.999c0 80 26.667 146.667 80 200s121 80 203 80
c40.667 0 78.667 -7.33301 114 -22l23 35zM417 341.001l-142 -210.999c12 -4 24.667 -6 38 -6c35.333 0 64 13.667 86 41s33 61.666 33 102.999c0 28 -5 52.333 -15 73zM346 407.002c-11.333 3.33301 -22.333 4.99902 -33 4.99902c-35.333 0 -64 -13.667 -86 -41
s-33 -61.666 -33 -102.999c0 -26 4 -49 12 -69zM511 759.001l-152 -177l-92 70l137 192z" />
    <glyph glyph-name="Scommaaccent" unicode="&#x218;" horiz-adv-x="609" 
d="M457 511c-52 43.333 -100.332 64.9961 -144.999 64.9961c-20 0 -37.667 -5.33301 -53 -16s-23 -25.334 -23 -44.001c0 -10 1.83301 -18.667 5.5 -26s10.667 -14 21 -20s18 -10.167 23 -12.5s15.5 -6.16602 31.5 -11.499l27 -9c25.333 -8.66699 46 -16.167 62 -22.5
s35.167 -16.166 57.5 -29.499s39.833 -27.5 52.5 -42.5s23.834 -34.5 33.501 -58.5s14.5 -50.667 14.5 -80c0 -36 -8 -68.167 -24 -96.5s-37.333 -51 -64 -68s-55.667 -29.833 -87 -38.5s-63.666 -13 -96.999 -13c-102 0 -193 40.667 -273 122l105 103
c23.333 -22 41 -37.667 53 -47s28.667 -18.666 50 -27.999s43.666 -14 66.999 -14c27.333 0 50.5 6.5 69.5 19.5s28.5 32.167 28.5 57.5c0 10.667 -2.83301 20.5 -8.5 29.5s-11.5 16.5 -17.5 22.5s-16.333 12.5 -31 19.5s-25.5 11.833 -32.5 14.5
s-19.833 7.33398 -38.5 14.001c-22.667 8.66699 -41.334 16.334 -56.001 23.001s-31.334 16.167 -50.001 28.5s-33.5 25.333 -44.5 39s-20.333 31.167 -28 52.5s-11.5 45 -11.5 71c0 62.667 23.333 111 70 145s102 51 166 51c82.667 0 162 -28.667 238 -86z
M267.001 -256.004h-120l36 197h143z" />
    <glyph glyph-name="scommaaccent" unicode="&#x219;" horiz-adv-x="492" 
d="M452 473l-86.998 -96.001c-33.333 30.667 -68.333 46 -105 46c-11.333 0 -21.333 -2.66699 -30 -8s-13 -12.333 -13 -21c0 -14 6.5 -25.667 19.5 -35s32.833 -19.666 59.5 -30.999c20.667 -8.66699 35.167 -14.834 43.5 -18.501s21.5 -10.834 39.5 -21.501s31 -21 39 -31
s15.667 -23.333 23 -40s11 -35 11 -55c0 -55.333 -20.667 -98.166 -62 -128.499s-90.666 -45.5 -147.999 -45.5c-84 0 -159.667 31.667 -227 95l88 96c24 -23.333 45.333 -40.166 64 -50.499s40.667 -15.5 66 -15.5c13.333 0 26.333 3 39 9s19 14.667 19 26
c0 4.66699 -0.833008 9.16699 -2.5 13.5s-4.5 8.5 -8.5 12.5s-7.83301 7.5 -11.5 10.5s-9.16699 6.33301 -16.5 10l-18 9c-4.66699 2.33301 -11.834 5.66602 -21.501 9.99902s-16.834 7.5 -21.501 9.5c-18.667 8.66699 -34.334 16.834 -47.001 24.501s-26 17.667 -40 30
s-24.5 27.333 -31.5 45s-10.5 37.5 -10.5 59.5c0 52 19.5 92.667 58.5 122s85.5 44 139.5 44c76 0 140 -25 192 -75zM231.002 -256.001h-120l36 197h143z" />
    <glyph glyph-name="uni021A" unicode="&#x21a;" horiz-adv-x="494" 
d="M490 566h-162v-566h-162v566h-162v134h486v-134zM248 -256h-120l36 197h143z" />
    <glyph glyph-name="uni021B" unicode="&#x21b;" horiz-adv-x="392" 
d="M366 404h-132v-196c0 -21.333 1 -37.333 3 -48c4.66699 -24 17 -36 37 -36s39.333 5 58 15l51 -118c-38 -22 -84 -33 -138 -33c-43.333 0 -79.5 11.167 -108.5 33.5s-48.167 52.833 -57.5 91.5c-4.66699 20 -7 47.667 -7 83v208h-61v132h61l30 115h132v-115h132v-132z
M208 -256h-120l36 197h143z" />
    <glyph glyph-name="dotlessj" unicode="&#x237;" horiz-adv-x="294" 
d="M231 536v-570c0 -64 -13.667 -111.667 -41 -143c-30 -34.667 -81 -52 -153 -52c-40 0 -80 7.33301 -120 22l42 126c18.667 -8 39.667 -12 63 -12c19.333 0 32 5.66699 38 17s9 28 9 50v562h162z" />
    <glyph glyph-name="apostrophe" unicode="&#x2bc;" horiz-adv-x="360" 
d="M136 768h162l-70 -256h-133z" />
    <glyph glyph-name="circumflex" unicode="&#x2c6;" horiz-adv-x="360" 
d="M100 819h162l115 -174l-88 -53l-110 132l-108 -132l-88 53z" />
    <glyph glyph-name="caron" unicode="&#x2c7;" horiz-adv-x="360" 
d="M260 604h-162l-115 174l89 53l110 -132l108 132l87 -53z" />
    <glyph glyph-name="uni02C9" unicode="&#x2c9;" horiz-adv-x="360" 
d="M360 610h-360v108h360v-108z" />
    <glyph glyph-name="breve" unicode="&#x2d8;" horiz-adv-x="360" 
d="M239 780h113.998c0.666992 -2.66699 1 -7.33398 1 -14.001c0 -48 -17 -88.5 -51 -121.5s-75 -49.5 -123 -49.5s-89 16.5 -123 49.5s-51 73.5 -51 121.5c0 6.66699 0.333008 11.334 1 14.001h114c-0.666992 -4 -1 -9.33301 -1 -16c0 -17.333 5.83301 -32.5 17.5 -45.5
s25.834 -19.5 42.501 -19.5s30.834 6.5 42.501 19.5s17.5 28.167 17.5 45.5c0 6.66699 -0.333008 12 -1 16z" />
    <glyph glyph-name="dotaccent" unicode="&#x2d9;" horiz-adv-x="360" 
d="M261 600h-162v128h162v-128z" />
    <glyph glyph-name="ring" unicode="&#x2da;" horiz-adv-x="360" 
d="M59 701c0 33.333 11.833 61.833 35.5 85.5s52.167 35.5 85.5 35.5s61.833 -11.833 85.5 -35.5s35.5 -52.167 35.5 -85.5s-11.833 -61.833 -35.5 -85.5s-52.167 -35.5 -85.5 -35.5s-61.833 11.833 -85.5 35.5s-35.5 52.167 -35.5 85.5zM134 701
c0 -12.667 4.33301 -23.5 13 -32.5s19.667 -13.5 33 -13.5s24.333 4.5 33 13.5s13 19.833 13 32.5s-4.33301 23.5 -13 32.5s-19.667 13.5 -33 13.5s-24.333 -4.5 -33 -13.5s-13 -19.833 -13 -32.5z" />
    <glyph glyph-name="ogonek" unicode="&#x2db;" horiz-adv-x="360" 
d="M168 8l134.001 0.000976562v-8c-77.333 -16 -116 -44.333 -116 -85c0 -26 17.333 -39 52 -39c15.333 0 31.666 4.33301 48.999 13l33 -89c-34 -19.333 -74 -29 -120 -29c-40.667 0 -74.667 10.667 -102 32s-41 47.666 -41 78.999c0 58.667 37 100.667 111 126z" />
    <glyph glyph-name="tilde" unicode="&#x2dc;" horiz-adv-x="360" 
d="M364 741c4.66699 -14.667 7 -29.333 7 -44c0 -32 -11 -57.667 -33 -77s-51.333 -29 -88 -29c-24.667 0 -54.334 8 -89.001 24c-32 14.667 -50.667 22 -56 22c-14.667 0 -22 -6.66699 -22 -20c0 -3.33301 0.333008 -5.33301 1 -6l-88 -10c-5.33301 17.333 -8 32 -8 44
c0 31.333 11 56.833 33 76.5s51.667 29.5 89 29.5c24.667 0 54.334 -8 89.001 -24c32 -14.667 50.667 -22 56 -22c14.667 0 22 6.66699 22 20c0 3.33301 -0.333008 5.33301 -1 6z" />
    <glyph glyph-name="hungarumlaut" unicode="&#x2dd;" horiz-adv-x="360" 
d="M233 764l-152 -177l-88 66l137 192zM450 754l-148 -172l-92 70l133 187z" />
    <glyph glyph-name="uni0394" unicode="&#x394;" 
d="M568 0h-587l225 580h140zM347 130l-75 205h-2l-74 -205h151z" />
    <glyph glyph-name="uni03A9" unicode="&#x3a9;" horiz-adv-x="794" 
d="M13 120h167.998c-44 34 -78 74.667 -102 122s-36 97.333 -36 150c0 67.333 17.5 125.833 52.5 175.5s78.833 86.167 131.5 109.5s109.334 35 170.001 35s117.334 -11.667 170.001 -35s96.5 -59.833 131.5 -109.5s52.5 -108.167 52.5 -175.5
c0 -52.667 -12 -102.667 -36 -150s-58 -88 -102 -122h168v-120h-350v132c46.667 18.667 84 51.334 112 98.001s42 96.667 42 150c0 60 -18.667 106.833 -56 140.5s-81.333 50.5 -132 50.5s-94.667 -16.833 -132 -50.5s-56 -80.5 -56 -140.5c0 -53.333 14 -103.333 42 -150
s65.333 -79.334 112 -98.001v-132h-350v120z" />
    <glyph glyph-name="uni03BC" unicode="&#x3bc;" 
d="M389 0l-15.002 68c-40.667 -53.333 -95 -80 -163 -80c-5.33301 0 -13.333 0.666992 -24 2v-240h-162v786h162v-277c0 -16 0.166992 -28.667 0.5 -38s1.83301 -21 4.5 -35s6.5 -24.833 11.5 -32.5s12.5 -14.5 22.5 -20.5s22.333 -9 37 -9
c18.667 0 37.334 4.83301 56.001 14.5s33.334 23.167 44.001 40.5v357h162v-536h-136z" />
    <glyph glyph-name="pi" unicode="&#x3c0;" 
d="M552 408l-87 0.000976562v-218c0 -14 0.333008 -24 1 -30c0.666992 -29.333 19 -47.666 55 -54.999l-59 -127c-46 11.333 -81.833 31.666 -107.5 60.999s-40.5 64.333 -44.5 105c-0.666992 6.66699 -1 19 -1 37v227h-85v-324c0 -26.667 -2.66699 -54.667 -8 -84h-161
c8 29.333 12 58.666 12 87.999v320h-56v128h541v-128z" />
    <glyph glyph-name="Wgrave" unicode="&#x1e80;" horiz-adv-x="966" 
d="M559 700l112 -418h2l108 418h181l-201 -700h-160l-121 432h-2l-124 -432h-153l-197 700h180l105 -418h2l117 418h151zM479 731l-185 128l82 109l175 -147z" />
    <glyph glyph-name="wgrave" unicode="&#x1e81;" horiz-adv-x="817" 
d="M476 536l81 -316h2l77 316h169l-154 -536h-170l-73 282h-2l-74 -282h-174l-146 536h172l71 -317h2l84 317h135zM374 582l-152 177l107 85l137 -192z" />
    <glyph glyph-name="Wacute" unicode="&#x1e82;" horiz-adv-x="966" 
d="M559 700l112 -418h2l108 418h181l-201 -700h-160l-121 432h-2l-124 -432h-153l-197 700h180l105 -418h2l117 418h151zM675 859l-185 -128l-72 90l175 147z" />
    <glyph glyph-name="wacute" unicode="&#x1e83;" horiz-adv-x="817" 
d="M476 536l81 -316h2l77 316h169l-154 -536h-170l-73 282h-2l-74 -282h-174l-146 536h172l71 -317h2l84 317h135zM593 759l-152 -177l-92 70l137 192z" />
    <glyph glyph-name="Wdieresis" unicode="&#x1e84;" horiz-adv-x="966" 
d="M559 700l112 -418h2l108 418h181l-201 -700h-160l-121 432h-2l-124 -432h-153l-197 700h180l105 -418h2l117 418h151zM427 761h-167v124h167v-124zM706 761h-167v124h167v-124z" />
    <glyph glyph-name="wdieresis" unicode="&#x1e85;" horiz-adv-x="817" 
d="M476 536l81 -316h2l77 316h169l-154 -536h-170l-73 282h-2l-74 -282h-174l-146 536h172l71 -317h2l84 317h135zM362 600h-162v128h162v-128zM618 600h-162v128h162v-128z" />
    <glyph glyph-name="Ygrave" unicode="&#x1ef2;" horiz-adv-x="628" 
d="M387 0h-162v291l-221 409h199l109 -236h2l122 236h188l-237 -415v-285zM334 731l-185 128l82 109l175 -147z" />
    <glyph glyph-name="ygrave" unicode="&#x1ef3;" horiz-adv-x="552" 
d="M2 536h176l96 -295h2l99 295h175l-302 -783l-145 56l86 228zM290 582l-152 177l107 85l137 -192z" />
    <glyph glyph-name="thinspace" unicode="&#x2009;" horiz-adv-x="125" 
 />
    <glyph glyph-name="endash" unicode="&#x2013;" horiz-adv-x="600" 
d="M550 256h-500v132h500v-132z" />
    <glyph glyph-name="emdash" unicode="&#x2014;" horiz-adv-x="900" 
d="M850 256h-800v132h800v-132z" />
    <glyph glyph-name="quoteleft" unicode="&#x2018;" horiz-adv-x="318" 
d="M273 700l-58 -286h-170l75 286h153z" />
    <glyph glyph-name="quoteright" unicode="&#x2019;" horiz-adv-x="318" 
d="M45 414l58 286h170l-75 -286h-153z" />
    <glyph glyph-name="quotesinglbase" unicode="&#x201a;" horiz-adv-x="318" 
d="M273 162l-75 -285h-153l58 285h170z" />
    <glyph glyph-name="quotedblleft" unicode="&#x201c;" horiz-adv-x="588" 
d="M288 700l-58 -286h-170l75 286h153zM528 700l-58 -286h-170l75 286h153z" />
    <glyph glyph-name="quotedblright" unicode="&#x201d;" horiz-adv-x="588" 
d="M300 414l58 286h170l-75 -286h-153zM60 414l58 286h170l-75 -286h-153z" />
    <glyph glyph-name="quotedblbase" unicode="&#x201e;" horiz-adv-x="588" 
d="M300 -124l58 286h170l-75 -286h-153zM60 -124l58 286h170l-75 -286h-153z" />
    <glyph glyph-name="dagger" unicode="&#x2020;" horiz-adv-x="430" 
d="M148 138v161l3 139l-55 -1h-43v115h43l55 -2l-3 102v48h134v-48l-3 -102l55 2h43v-115h-43l-55 1l3 -139v-161h-134z" />
    <glyph glyph-name="daggerdbl" unicode="&#x2021;" horiz-adv-x="430" 
d="M53 437h42l55 -2v61l-55 -2h-42v114h42l55 -2l-2 58v36h134v-36l-2 -58l55 2h42v-114h-42l-55 2v-61l55 2h42v-114h-42l-55 2l2 -44v-143h-134v143l2 44l-55 -2h-42v114z" />
    <glyph glyph-name="bullet" unicode="&#x2022;" horiz-adv-x="370" 
d="M35 289c0 40.667 14.833 75.834 44.5 105.501s64.834 44.5 105.501 44.5s75.834 -14.833 105.501 -44.5s44.5 -64.834 44.5 -105.501s-14.833 -75.834 -44.5 -105.501s-64.834 -44.5 -105.501 -44.5s-75.834 14.833 -105.501 44.5s-44.5 64.834 -44.5 105.501z" />
    <glyph glyph-name="ellipsis" unicode="&#x2026;" horiz-adv-x="750" 
d="M219 0h-171v162h171v-162zM701 0h-171v162h171v-162zM460 0h-171v162h171v-162z" />
    <glyph glyph-name="perthousand" unicode="&#x2030;" horiz-adv-x="1252" 
d="M1025 344c50 0 93 -16.5 129 -49.5s54 -74.833 54 -125.5s-18 -92.5 -54 -125.5s-79 -49.5 -129 -49.5s-93 16.5 -129 49.5s-54 74.833 -54 125.5s18 92.5 54 125.5s79 49.5 129 49.5zM1025 233c-16.667 0 -30.334 -6 -41.001 -18s-16 -27.333 -16 -46
s5.33301 -34 16 -46s24.334 -18 41.001 -18s30.334 6 41.001 18s16 27.333 16 46s-5.33301 34 -16 46s-24.334 18 -41.001 18zM227 706c50 0 93 -16.5 129 -49.5s54 -74.833 54 -125.5s-18 -92.5 -54 -125.5s-79 -49.5 -129 -49.5s-93 16.5 -129 49.5s-54 74.833 -54 125.5
s18 92.5 54 125.5s79 49.5 129 49.5zM227 595c-16.667 0 -30.334 -6 -41.001 -18s-16 -27.333 -16 -46s5.33301 -34 16 -46s24.334 -18 41.001 -18s30.334 6 41.001 18s16 27.333 16 46s-5.33301 34 -16 46s-24.334 18 -41.001 18zM631 344c50 0 93 -16.5 129 -49.5
s54 -74.833 54 -125.5s-18 -92.5 -54 -125.5s-79 -49.5 -129 -49.5s-93 16.5 -129 49.5s-54 74.833 -54 125.5s18 92.5 54 125.5s79 49.5 129 49.5zM631 233c-16.667 0 -30.334 -6 -41.001 -18s-16 -27.333 -16 -46s5.33301 -34 16 -46s24.334 -18 41.001 -18
s30.334 6 41.001 18s16 27.333 16 46s-5.33301 34 -16 46s-24.334 18 -41.001 18zM640 720l77 -57l-499 -683l-77 57z" />
    <glyph glyph-name="guilsinglleft" unicode="&#x2039;" horiz-adv-x="347" 
d="M45 326l167 175l90 -112l-126 -120l126 -120l-90 -112l-167 175v114z" />
    <glyph glyph-name="guilsinglright" unicode="&#x203a;" horiz-adv-x="347" 
d="M135 501l167 -175v-114l-167 -175l-90 112l126 120l-126 120z" />
    <glyph glyph-name="fraction" unicode="&#x2044;" horiz-adv-x="156" 
d="M289 720l77 -57l-499 -683l-77 57z" />
    <glyph glyph-name="zerosuperior" unicode="&#x2070;" horiz-adv-x="358" 
d="M179 444c29.333 0 44 41 44 123s-14.667 123 -44 123s-44 -41 -44 -123s14.667 -123 44 -123zM179 775c51.333 0 91.166 -18.333 119.499 -55s42.5 -87.667 42.5 -153s-14.167 -116.333 -42.5 -153s-68.166 -55 -119.499 -55s-91.166 18.333 -119.499 55
s-42.5 87.667 -42.5 153s14.167 116.333 42.5 153s68.166 55 119.499 55z" />
    <glyph glyph-name="foursuperior" unicode="&#x2074;" horiz-adv-x="358" 
d="M15 548c50.667 62.667 106 135.667 166 219h120v-222h49v-83h-49v-95h-114v95h-172v86zM187 545l0.000976562 87.999c-20.667 -31.333 -41.334 -60.666 -62.001 -87.999h62z" />
    <glyph glyph-name="fivesuperior" unicode="&#x2075;" horiz-adv-x="338" 
d="M299 684l-149.001 -0.000976562c-1.33301 -35.333 -2.66602 -58 -3.99902 -68c17.333 9.33301 35 14 53 14c35.333 0 64 -12.667 86 -38s33 -55 33 -89c0 -41.333 -14.667 -75.666 -44 -102.999s-64.666 -41 -105.999 -41c-73.333 0 -124.333 28.333 -153 85l82 40
c10 -26.667 28.333 -40 55 -40c14 0 25.167 4.5 33.5 13.5s12.5 20.167 12.5 33.5c0 14 -4.16699 25.167 -12.5 33.5s-19.833 12.5 -34.5 12.5c-16.667 0 -31.334 -7.66699 -44.001 -23l-68 47c4.66699 48 8.66699 116.667 12 206h248v-83z" />
    <glyph glyph-name="sixsuperior" unicode="&#x2076;" horiz-adv-x="362" 
d="M243 798l32.999 -87.999c-66 -18.667 -108.333 -50 -127 -94c18 9.33301 38 14 60 14c38.667 0 71 -12.333 97 -37s39 -56.334 39 -95.001c0 -42 -14.667 -75.667 -44 -101s-65.666 -38 -108.999 -38c-52 0 -94.167 15.167 -126.5 45.5s-48.5 71.833 -48.5 124.5
c0 69.333 20.667 126.5 62 171.5s96 77.5 164 97.5zM134.999 521.001c0 -22 4.33203 -40.333 12.999 -55s21.334 -22 38.001 -22c12.667 0 22.667 4.66699 30 14s11 20.333 11 33c0 14 -3.83301 26.5 -11.5 37.5s-18.167 16.5 -31.5 16.5c-18.667 0 -35 -8 -49 -24z" />
    <glyph glyph-name="sevensuperior" unicode="&#x2077;" horiz-adv-x="308" 
d="M300 767v-57.001c-36 -73.333 -90.333 -196.666 -163 -369.999l-105 49c42.667 96.667 90.667 195 144 295h-171v83h295z" />
    <glyph glyph-name="eightsuperior" unicode="&#x2078;" horiz-adv-x="361" 
d="M275 576c40 -24 60.002 -55.667 60.002 -95c0 -35.333 -15.333 -64.5 -46 -87.5s-67 -34.5 -109 -34.5c-42.667 0 -79 11.333 -109 34s-45 52 -45 88c0 41.333 19.667 73 59 95c-32.667 22 -49 50.333 -49 85c0 32 13.667 59 41 81s61.666 33 102.999 33
s75.666 -11 102.999 -33s41 -49 41 -81c0 -36 -16.333 -64.333 -49 -85zM180.002 532c-10.667 0 -19.334 -4.16895 -26.001 -12.502s-10 -19.166 -10 -32.499c0 -12.667 3.33301 -23.334 10 -32.001s15.334 -13 26.001 -13s19.5 4.33301 26.5 13s10.5 19.334 10.5 32.001
s-3.5 23.334 -10.5 32.001s-15.833 13 -26.5 13zM180.002 689.998c-8.66699 0 -15.5 -3.33301 -20.5 -10s-7.5 -15.667 -7.5 -27c0 -10.667 2.66699 -19.667 8 -27s12 -11 20 -11c8.66699 0 15.5 3.66699 20.5 11s7.5 16.333 7.5 27c0 24.667 -9.33301 37 -28 37z" />
    <glyph glyph-name="ninesuperior" unicode="&#x2079;" horiz-adv-x="362" 
d="M119 336l-32.998 88c66.667 17.333 108.667 48.666 126 93.999c-16.667 -9.33301 -36.334 -14 -59.001 -14c-38.667 0 -71 12.333 -97 37s-39 56.334 -39 95.001c0 42 14.667 75.667 44 101s65.666 38 108.999 38c52 0 94.167 -15.167 126.5 -45.5
s48.5 -71.833 48.5 -124.5c0 -69.333 -20.667 -126.5 -62 -171.5s-96 -77.5 -164 -97.5zM227.002 613c-0.666992 22 -5.16699 40.333 -13.5 55s-20.833 22 -37.5 22c-12.667 0 -22.667 -4.66699 -30 -14s-11 -20.333 -11 -33c0 -14 3.83301 -26.5 11.5 -37.5
s18.167 -16.5 31.5 -16.5c18 0 34.333 8 49 24z" />
    <glyph glyph-name="plussuperior" unicode="&#x207a;" horiz-adv-x="343" 
d="M128 409v106h-106v87h106v106h87v-106h106v-87h-106v-106h-87z" />
    <glyph glyph-name="minussuperior" unicode="&#x207b;" horiz-adv-x="343" 
d="M22 602h299v-87h-299v87z" />
    <glyph glyph-name="equalsuperior" unicode="&#x207c;" horiz-adv-x="343" 
d="M22 663h299v-81h-299v81zM22 533h299v-81h-299v81z" />
    <glyph glyph-name="parenleftsuperior" unicode="&#x207d;" horiz-adv-x="238" 
d="M238 328l-44 -67.999c-120 72.667 -180 169.667 -180 291c0 122 60 219.333 180 292l44 -68c-79.333 -50.667 -119 -125.334 -119 -224.001c0 -98 39.667 -172.333 119 -223z" />
    <glyph glyph-name="parenrightsuperior" unicode="&#x207e;" horiz-adv-x="238" 
d="M44 260l-44 67.999c79.333 50.667 119 125 119 223c0 98.667 -39.667 173.334 -119 224.001l44 68c120 -72.667 180 -170 180 -292c0 -121.333 -60 -218.333 -180 -291z" />
    <glyph glyph-name="zeroinferior" unicode="&#x2080;" horiz-adv-x="358" 
d="M179 -100c29.333 0 44 41 44 123s-14.667 123 -44 123s-44 -41 -44 -123s14.667 -123 44 -123zM179 231c51.333 0 91.166 -18.333 119.499 -55s42.5 -87.667 42.5 -153s-14.167 -116.333 -42.5 -153s-68.166 -55 -119.499 -55s-91.166 18.333 -119.499 55
s-42.5 87.667 -42.5 153s14.167 116.333 42.5 153s68.166 55 119.499 55z" />
    <glyph glyph-name="oneinferior" unicode="&#x2081;" horiz-adv-x="234" 
d="M193 -178h-116.001v280c-25.333 -10.667 -43.666 -18 -54.999 -22v93c28 12.667 59.333 29 94 49h77v-400z" />
    <glyph glyph-name="twoinferior" unicode="&#x2082;" horiz-adv-x="336" 
d="M21 -98c58 46 105.001 90.332 141.001 132.999c21.333 26.667 32 50.667 32 72c0 25.333 -10.333 38 -31 38c-21.333 0 -32 -18 -32 -54l-116 13c0.666992 38.667 14.667 69.334 42 92.001s61 34 101 34c42 0 78.167 -10.333 108.5 -31s45.5 -49 45.5 -85
c0 -40 -13.333 -75.333 -40 -106c-32.667 -38.667 -70.334 -73 -113.001 -103h162v-83h-300v80z" />
    <glyph glyph-name="threeinferior" unicode="&#x2083;" horiz-adv-x="358" 
d="M120 -11l-0.00195312 74.999c11.333 -1.33301 26 -0.333008 44 3c24 5.33301 36 18 36 38c0 11.333 -3.66699 20.833 -11 28.5s-17.666 11.5 -30.999 11.5c-23.333 0 -40 -13 -50 -39l-87 41c10 26.667 27.667 47.167 53 61.5s54 21.5 86 21.5
c42.667 0 79.334 -9.66699 110.001 -29s46 -45 46 -77c0 -39.333 -20 -69 -60 -89c52.667 -15.333 79 -49.333 79 -102c0 -35.333 -15.667 -64 -47 -86s-70 -33 -116 -33c-35.333 0 -68 8 -98 24s-50.333 38.333 -61 67l88 40c14.667 -30.667 35.334 -46 62.001 -46
c16 0 28.833 4.33301 38.5 13s14.5 19 14.5 31c0 14.667 -6.33301 26.334 -19 35.001s-28.334 13 -47.001 13c-8 0 -18 -0.666992 -30 -2z" />
    <glyph glyph-name="fourinferior" unicode="&#x2084;" horiz-adv-x="358" 
d="M15 3c50.667 62.667 106 135.667 166 219h120v-222h49v-83h-49v-95h-114v95h-172v86zM187 0l0.000976562 87.999c-20.667 -31.333 -41.334 -60.666 -62.001 -87.999h62z" />
    <glyph glyph-name="fiveinferior" unicode="&#x2085;" horiz-adv-x="338" 
d="M299 139l-149.001 -0.000976562c-1.33301 -35.333 -2.66602 -58 -3.99902 -68c17.333 9.33301 35 14 53 14c35.333 0 64 -12.667 86 -38s33 -55 33 -89c0 -41.333 -14.667 -75.666 -44 -102.999s-64.666 -41 -105.999 -41c-73.333 0 -124.333 28.333 -153 85l82 40
c10 -26.667 28.333 -40 55 -40c14 0 25.167 4.5 33.5 13.5s12.5 20.167 12.5 33.5c0 14 -4.16699 25.167 -12.5 33.5s-19.833 12.5 -34.5 12.5c-16.667 0 -31.334 -7.66699 -44.001 -23l-68 47c4.66699 48 8.66699 116.667 12 206h248v-83z" />
    <glyph glyph-name="sixinferior" unicode="&#x2086;" horiz-adv-x="362" 
d="M243 253l32.999 -87.999c-66 -18.667 -108.333 -50 -127 -94c18 9.33301 38 14 60 14c38.667 0 71 -12.333 97 -37s39 -56.334 39 -95.001c0 -42 -14.667 -75.667 -44 -101s-65.666 -38 -108.999 -38c-52 0 -94.167 15.167 -126.5 45.5s-48.5 71.833 -48.5 124.5
c0 69.333 20.667 126.5 62 171.5s96 77.5 164 97.5zM134.999 -23.999c0 -22 4.33203 -40.333 12.999 -55s21.334 -22 38.001 -22c12.667 0 22.667 4.66699 30 14s11 20.333 11 33c0 14 -3.83301 26.5 -11.5 37.5s-18.167 16.5 -31.5 16.5c-18.667 0 -35 -8 -49 -24z" />
    <glyph glyph-name="seveninferior" unicode="&#x2087;" horiz-adv-x="308" 
d="M300 222v-57.001c-36 -73.333 -90.333 -196.666 -163 -369.999l-105 49c42.667 96.667 90.667 195 144 295h-171v83h295z" />
    <glyph glyph-name="eightinferior" unicode="&#x2088;" horiz-adv-x="361" 
d="M275 31c40 -24 60.002 -55.667 60.002 -95c0 -35.333 -15.333 -64.5 -46 -87.5s-67 -34.5 -109 -34.5c-42.667 0 -79 11.333 -109 34s-45 52 -45 88c0 41.333 19.667 73 59 95c-32.667 22 -49 50.333 -49 85c0 32 13.667 59 41 81s61.666 33 102.999 33
s75.666 -11 102.999 -33s41 -49 41 -81c0 -36 -16.333 -64.333 -49 -85zM180.002 -13c-10.667 0 -19.334 -4.16895 -26.001 -12.502s-10 -19.166 -10 -32.499c0 -12.667 3.33301 -23.334 10 -32.001s15.334 -13 26.001 -13s19.5 4.33301 26.5 13s10.5 19.334 10.5 32.001
s-3.5 23.334 -10.5 32.001s-15.833 13 -26.5 13zM180.002 144.998c-8.66699 0 -15.5 -3.33301 -20.5 -10s-7.5 -15.667 -7.5 -27c0 -10.667 2.66699 -19.667 8 -27s12 -11 20 -11c8.66699 0 15.5 3.66699 20.5 11s7.5 16.333 7.5 27c0 24.667 -9.33301 37 -28 37z" />
    <glyph glyph-name="nineinferior" unicode="&#x2089;" horiz-adv-x="362" 
d="M119 -209l-32.998 88c66.667 17.333 108.667 48.666 126 93.999c-16.667 -9.33301 -36.334 -14 -59.001 -14c-38.667 0 -71 12.333 -97 37s-39 56.334 -39 95.001c0 42 14.667 75.667 44 101s65.666 38 108.999 38c52 0 94.167 -15.167 126.5 -45.5
s48.5 -71.833 48.5 -124.5c0 -69.333 -20.667 -126.5 -62 -171.5s-96 -77.5 -164 -97.5zM227.002 68c-0.666992 22 -5.16699 40.333 -13.5 55s-20.833 22 -37.5 22c-12.667 0 -22.667 -4.66699 -30 -14s-11 -20.333 -11 -33c0 -14 3.83301 -26.5 11.5 -37.5
s18.167 -16.5 31.5 -16.5c18 0 34.333 8 49 24z" />
    <glyph glyph-name="parenleftinferior" unicode="&#x208d;" horiz-adv-x="238" 
d="M238 -217l-44 -67.999c-120 72.667 -180 169.667 -180 291c0 122 60 219.333 180 292l44 -68c-79.333 -50.667 -119 -125.334 -119 -224.001c0 -98 39.667 -172.333 119 -223z" />
    <glyph glyph-name="parenrightinferior" unicode="&#x208e;" horiz-adv-x="238" 
d="M44 -285l-44 67.999c79.333 50.667 119 125 119 223c0 98.667 -39.667 173.334 -119 224.001l44 68c120 -72.667 180 -170 180 -292c0 -121.333 -60 -218.333 -180 -291z" />
    <glyph glyph-name="Euro" unicode="&#x20ac;" horiz-adv-x="650" 
d="M15 358l0.00195312 102.001h84c18 48.667 46.667 90.167 86 124.5s79.166 58.5 119.499 72.5s79.166 21 116.499 21c69.333 0 143 -23 221 -69l-69 -114c-45.333 38.667 -93.333 58 -144 58c-72 0 -127 -31 -165 -93h222v-102h-255c-0.666992 -6 -1 -14.667 -1 -26
c0 -14 0.333008 -24 1 -30h255v-101h-226c34 -58.667 90 -88 168 -88c56 0 104 20 144 60l82 -104c-70.667 -54 -150 -81 -238 -81c-29.333 0 -59.166 4 -89.499 12s-60.333 20 -90 36s-56.834 38.167 -81.501 66.5s-43.667 61.166 -57 98.499h-83v101h63
c-0.666992 6.66699 -1 16.667 -1 30c0 11.333 0.333008 20 1 26h-63z" />
    <glyph glyph-name="afii61352" unicode="&#x2116;" horiz-adv-x="1147" 
d="M675 0h-146l-296 406v-406h-162v700h143l299 -408v408h162v-700zM940 734c54.667 0 99.334 -16.833 134.001 -50.5s52 -76.167 52 -127.5s-17.333 -93.833 -52 -127.5s-79.334 -50.5 -134.001 -50.5s-99.334 16.833 -134.001 50.5s-52 76.167 -52 127.5
s17.333 93.833 52 127.5s79.334 50.5 134.001 50.5zM1008 556c0 26.667 -6.16699 48.5 -18.5 65.5s-28.833 25.5 -49.5 25.5s-37.167 -8.5 -49.5 -25.5s-18.5 -38.833 -18.5 -65.5s6.16699 -48.5 18.5 -65.5s28.833 -25.5 49.5 -25.5s37.167 8.5 49.5 25.5
s18.5 38.833 18.5 65.5z" />
    <glyph glyph-name="trademark" unicode="&#x2122;" horiz-adv-x="985" 
d="M368 608h-97v-342h-114v342h-97v92h308v-92zM696 266l117 287v-287h112v434h-163l-95 -237l-91 237h-166v-434h111v290l115 -290h60z" />
    <glyph glyph-name="Omega" unicode="&#x2126;" horiz-adv-x="794" 
d="M13 120h167.998c-44 34 -78 74.667 -102 122s-36 97.333 -36 150c0 67.333 17.5 125.833 52.5 175.5s78.833 86.167 131.5 109.5s109.334 35 170.001 35s117.334 -11.667 170.001 -35s96.5 -59.833 131.5 -109.5s52.5 -108.167 52.5 -175.5
c0 -52.667 -12 -102.667 -36 -150s-58 -88 -102 -122h168v-120h-350v132c46.667 18.667 84 51.334 112 98.001s42 96.667 42 150c0 60 -18.667 106.833 -56 140.5s-81.333 50.5 -132 50.5s-94.667 -16.833 -132 -50.5s-56 -80.5 -56 -140.5c0 -53.333 14 -103.333 42 -150
s65.333 -79.334 112 -98.001v-132h-350v120z" />
    <glyph glyph-name="onethird" unicode="&#x2153;" horiz-adv-x="854" 
d="M598 720l77 -57l-499 -683l-77 57zM247 338h-108v248c-24 -12.667 -43.667 -21.667 -59 -27v100c22 10 49 23.667 81 41h86v-362zM588 147l-1.00098 74c12 -0.666992 24 0.333008 36 3c18.667 4 28 14.667 28 32c0 20 -11.667 30 -35 30c-21.333 0 -33.333 -10 -36 -30
l-83 39c8.66699 24 24.334 42.5 47.001 55.5s48 19.5 76 19.5c37.333 0 69.5 -8.66699 96.5 -26s40.5 -40.666 40.5 -69.999c0 -15.333 -4.5 -30.5 -13.5 -45.5s-21.167 -26.5 -36.5 -34.5c20 -6.66699 36.167 -18.5 48.5 -35.5s18.5 -35.5 18.5 -55.5
c0 -34.667 -14.333 -61.834 -43 -81.501s-62 -29.5 -100 -29.5c-69.333 0 -116.333 27.333 -141 82l84 38c8.66699 -24 26 -36 52 -36c10.667 0 20 2.83301 28 8.5s12 14.167 12 25.5c0 26 -19 39 -57 39c-6 0 -13 -0.666992 -21 -2z" />
    <glyph glyph-name="twothirds" unicode="&#x2154;" horiz-adv-x="959" 
d="M703 720l77 -57l-499 -683l-77 57zM85 411c57.333 46 100 85.666 128 118.999c19.333 22.667 29 44.667 29 66c0 18.667 -9.66699 28 -29 28c-9.33301 0 -16.833 -3.66699 -22.5 -11s-8.5 -17 -8.5 -29l-102 16c1.33301 34.667 14.5 61.334 39.5 80.001s56.5 28 94.5 28
c36.667 0 68.5 -9.66699 95.5 -29s40.5 -45 40.5 -77c0 -34 -12.667 -66.333 -38 -97c-22 -26 -50.333 -52.333 -85 -79h131v-88h-273v73zM693 146.999l-1.00098 74c12 -0.666992 24 0.333008 36 3c18.667 4 28 14.667 28 32c0 20 -11.667 30 -35 30
c-20.667 0 -32.667 -10 -36 -30l-83 39c8.66699 24 24.334 42.5 47.001 55.5s48 19.5 76 19.5c37.333 0 69.5 -8.66699 96.5 -26s40.5 -40.666 40.5 -69.999c0 -15.333 -4.5 -30.5 -13.5 -45.5s-21.167 -26.5 -36.5 -34.5c20 -6.66699 36.167 -18.5 48.5 -35.5
s18.5 -35.5 18.5 -55.5c0 -34.667 -14.333 -61.834 -43 -81.501s-62 -29.5 -100 -29.5c-69.333 0 -116.333 27.333 -141 82l84 38c8.66699 -24 26 -36 52 -36c10.667 0 20 2.83301 28 8.5s12 14.167 12 25.5c0 26 -19 39 -57 39c-6 0 -13 -0.666992 -21 -2z" />
    <glyph glyph-name="oneeighth" unicode="&#x215b;" horiz-adv-x="863" 
d="M598 720l77 -57l-499 -683l-77 57zM727 189c37.333 -18 56.002 -46.667 56.002 -86c0 -34.667 -14.5 -61.834 -43.5 -81.501s-62.5 -29.5 -100.5 -29.5s-71.5 9.83301 -100.5 29.5s-43.5 46.834 -43.5 81.501c0 39.333 18.667 68 56 86
c-29.333 20.667 -44 46.334 -44 77.001c0 29.333 12.167 54 36.5 74s56.166 30 95.499 30s71.166 -10 95.499 -30s36.5 -44.667 36.5 -74c0 -30.667 -14.667 -56.334 -44 -77.001zM609.002 262c0 -8.66699 2.83301 -15.834 8.5 -21.501s12.834 -8.5 21.501 -8.5
s15.834 2.83301 21.501 8.5s8.5 12.834 8.5 21.501s-2.83301 15.834 -8.5 21.501s-12.834 8.5 -21.501 8.5s-15.834 -2.83301 -21.501 -8.5s-8.5 -12.834 -8.5 -21.501zM603.002 106c0 -10 3.5 -18.5 10.5 -25.5s15.5 -10.5 25.5 -10.5s18.5 3.5 25.5 10.5
s10.5 15.5 10.5 25.5s-3.5 18.5 -10.5 25.5s-15.5 10.5 -25.5 10.5s-18.5 -3.5 -25.5 -10.5s-10.5 -15.5 -10.5 -25.5zM247.002 338h-108v248c-24 -12.667 -43.667 -21.667 -59 -27v100c22 10 49 23.667 81 41h86v-362z" />
    <glyph glyph-name="threeeighths" unicode="&#x215c;" horiz-adv-x="946" 
d="M681 720l77 -57l-499 -683l-77 57zM810 189c37.333 -18 56.002 -46.667 56.002 -86c0 -34.667 -14.5 -61.834 -43.5 -81.501s-62.5 -29.5 -100.5 -29.5s-71.5 9.83301 -100.5 29.5s-43.5 46.834 -43.5 81.501c0 39.333 18.667 68 56 86
c-29.333 20.667 -44 46.334 -44 77.001c0 29.333 12.167 54 36.5 74s56.166 30 95.499 30s71.166 -10 95.499 -30s36.5 -44.667 36.5 -74c0 -30.667 -14.667 -56.334 -44 -77.001zM692.002 262c0 -8.66699 2.83301 -15.834 8.5 -21.501s12.834 -8.5 21.501 -8.5
s15.834 2.83301 21.501 8.5s8.5 12.834 8.5 21.501s-2.83301 15.834 -8.5 21.501s-12.834 8.5 -21.501 8.5s-15.834 -2.83301 -21.501 -8.5s-8.5 -12.834 -8.5 -21.501zM686.002 106c0 -10 3.5 -18.5 10.5 -25.5s15.5 -10.5 25.5 -10.5s18.5 3.5 25.5 10.5
s10.5 15.5 10.5 25.5s-3.5 18.5 -10.5 25.5s-15.5 10.5 -25.5 10.5s-18.5 -3.5 -25.5 -10.5s-10.5 -15.5 -10.5 -25.5zM178.002 485l-1.00098 74c12 -0.666992 24 0.333008 36 3c18.667 4 28 14.667 28 32c0 20 -11.667 30 -35 30c-21.333 0 -33.333 -10 -36 -30l-83 39
c8.66699 24 24.334 42.5 47.001 55.5s48 19.5 76 19.5c37.333 0 69.5 -8.66699 96.5 -26s40.5 -40.666 40.5 -69.999c0 -15.333 -4.5 -30.5 -13.5 -45.5s-21.167 -26.5 -36.5 -34.5c20 -6.66699 36.167 -18.5 48.5 -35.5s18.5 -35.5 18.5 -55.5
c0 -34.667 -14.333 -61.834 -43 -81.501s-62 -29.5 -100 -29.5c-69.333 0 -116.333 27.333 -141 82l84 38c8.66699 -24 26 -36 52 -36c10.667 0 20 2.83301 28 8.5s12 14.167 12 25.5c0 26 -19 39 -57 39c-6 0 -13 -0.666992 -21 -2z" />
    <glyph glyph-name="fiveeighths" unicode="&#x215d;" horiz-adv-x="937" 
d="M672 720l77 -57l-499 -683l-77 57zM337 612l-134.003 0.000976562c-1.33301 -22.667 -2.66602 -39.667 -3.99902 -51c14.667 8.66699 30.667 13 48 13c32.667 0 58.834 -11.5 78.501 -34.5s29.5 -49.5 29.5 -79.5c0 -37.333 -13.167 -68.333 -39.5 -93
s-58.5 -37 -96.5 -37c-67.333 0 -113.666 25.333 -138.999 76l84 40c8 -21.333 23 -32 45 -32c12 0 21.333 3.66699 28 11s10 16.666 10 27.999c0 10.667 -3.5 19.5 -10.5 26.5s-16.5 10.5 -28.5 10.5c-14 0 -26 -6 -36 -18l-70 40c4 44 7.66699 106.667 11 188h224v-88z
M800.997 189.001c37.333 -18 56.002 -46.667 56.002 -86c0 -34.667 -14.5 -61.834 -43.5 -81.501s-62.5 -29.5 -100.5 -29.5s-71.5 9.83301 -100.5 29.5s-43.5 46.834 -43.5 81.501c0 39.333 18.667 68 56 86c-29.333 20.667 -44 46.334 -44 77.001
c0 29.333 12.167 54 36.5 74s56.166 30 95.499 30s71.166 -10 95.499 -30s36.5 -44.667 36.5 -74c0 -30.667 -14.667 -56.334 -44 -77.001zM682.999 262.001c0 -8.66699 2.83301 -15.834 8.5 -21.501s12.834 -8.5 21.501 -8.5s15.834 2.83301 21.501 8.5
s8.5 12.834 8.5 21.501s-2.83301 15.834 -8.5 21.501s-12.834 8.5 -21.501 8.5s-15.834 -2.83301 -21.501 -8.5s-8.5 -12.834 -8.5 -21.501zM676.999 106.001c0 -10 3.5 -18.5 10.5 -25.5s15.5 -10.5 25.5 -10.5s18.5 3.5 25.5 10.5s10.5 15.5 10.5 25.5
s-3.5 18.5 -10.5 25.5s-15.5 10.5 -25.5 10.5s-18.5 -3.5 -25.5 -10.5s-10.5 -15.5 -10.5 -25.5z" />
    <glyph glyph-name="seveneighths" unicode="&#x215e;" horiz-adv-x="869" 
d="M604 720l77 -57l-499 -683l-77 57zM733 189c37.333 -18 56.002 -46.667 56.002 -86c0 -34.667 -14.5 -61.834 -43.5 -81.501s-62.5 -29.5 -100.5 -29.5s-71.5 9.83301 -100.5 29.5s-43.5 46.834 -43.5 81.501c0 39.333 18.667 68 56 86
c-29.333 20.667 -44 46.334 -44 77.001c0 29.333 12.167 54 36.5 74s56.166 30 95.499 30s71.166 -10 95.499 -30s36.5 -44.667 36.5 -74c0 -30.667 -14.667 -56.334 -44 -77.001zM615.002 262c0 -8.66699 2.83301 -15.834 8.5 -21.501s12.834 -8.5 21.501 -8.5
s15.834 2.83301 21.501 8.5s8.5 12.834 8.5 21.501s-2.83301 15.834 -8.5 21.501s-12.834 8.5 -21.501 8.5s-15.834 -2.83301 -21.501 -8.5s-8.5 -12.834 -8.5 -21.501zM609.002 106c0 -10 3.5 -18.5 10.5 -25.5s15.5 -10.5 25.5 -10.5s18.5 3.5 25.5 10.5
s10.5 15.5 10.5 25.5s-3.5 18.5 -10.5 25.5s-15.5 10.5 -25.5 10.5s-18.5 -3.5 -25.5 -10.5s-10.5 -15.5 -10.5 -25.5zM355.002 639c-37.333 -68.667 -87.333 -176.334 -150 -323.001l-100 42c30 70.667 71.667 155.334 125 254.001h-150v88h275v-61z" />
    <glyph glyph-name="uni2192" unicode="&#x2192;" horiz-adv-x="982" 
d="M55 203v122h641l-149 147l86 84l294 -292l-294 -292l-86 84l149 147h-641z" />
    <glyph glyph-name="uni2194" unicode="&#x2194;" horiz-adv-x="1240" 
d="M435 472l-149 -147h668l-149 147l86 84l294 -292l-294 -292l-86 84l149 147h-668l149 -147l-86 -84l-294 292l294 292z" />
    <glyph glyph-name="uni21D2" unicode="&#x21d2;" horiz-adv-x="1082" 
d="M718 402l-71 70l86 84l294 -292l-294 -292l-86 84l71 70h-663v118h782l21 20l-21 20h-782v118h663z" />
    <glyph glyph-name="uni21D4" unicode="&#x21d4;" horiz-adv-x="1242" 
d="M878 402l-71 70l86 84l294 -292l-294 -292l-86 84l71 70h-514l71 -70l-86 -84l-294 292l294 292l86 -84l-71 -70h514zM244 284l-20 -20l20 -20h753l21 20l-21 20h-753z" />
    <glyph glyph-name="uni21FD" unicode="&#x21fd;" horiz-adv-x="980" 
d="M413 -82l-358 346l358 345v-284h512v-122h-512v-285zM297 336l-73 -72l73 -73v145z" />
    <glyph glyph-name="uni21FE" unicode="&#x21fe;" horiz-adv-x="980" 
d="M925 264l-358 -346v285h-512v122h512v284zM756 264l-73 72v-145z" />
    <glyph glyph-name="uni21FF" unicode="&#x21ff;" horiz-adv-x="1240" 
d="M1185 264l-358 -346v285h-414v-285l-358 346l358 345v-284h414v284zM297 336l-73 -72l73 -73v145zM1016 264l-73 72v-145z" />
    <glyph glyph-name="uni2200" unicode="&#x2200;" horiz-adv-x="703" 
d="M11 700h186l41 -123h231l44 123h179l-291 -700h-129zM350 246l72 202h-140l67 -202h1z" />
    <glyph glyph-name="partialdiff" unicode="&#x2202;" 
d="M23 676l50.001 125.997c49.333 -21.333 95.5 -43.666 138.5 -66.999s86.667 -51.666 131 -84.999s82.166 -68.166 113.499 -104.499s56.833 -78.333 76.5 -126s29.5 -97.167 29.5 -148.5c0 -83.333 -27.667 -151.333 -83 -204s-125 -79 -209 -79
c-77.333 0 -143.5 28 -198.5 84s-82.5 123 -82.5 201c0 70.667 25.667 132.167 77 184.5s113 78.5 185 78.5h10c-54.667 47.333 -134 94 -238 140zM376.001 384.997c-26.667 12.667 -53.333 19 -80 19c-42.667 0 -78.167 -12 -106.5 -36s-42.5 -55.667 -42.5 -95
c0 -40 12 -75.5 36 -106.5s55.333 -46.5 94 -46.5c38 0 68.5 14 91.5 42s34.5 61.667 34.5 101c0 41.333 -9 82 -27 122z" />
    <glyph glyph-name="uni2203" unicode="&#x2203;" horiz-adv-x="580" 
d="M49 700h460v-700h-460v134h298v139h-298v134h298v159h-298v134z" />
    <glyph glyph-name="uni2204" unicode="&#x2204;" horiz-adv-x="580" 
d="M403 762l-18 -62h124v-700h-325l-23 -82l-103 27l16 55h-25v134h63l40 139h-103v134h142l45 159h-187v134h225l26 89zM347 273h-84l-40 -139h124v139zM347 407v159l-46 -159h46z" />
    <glyph glyph-name="Delta" unicode="&#x2206;" horiz-adv-x="633" 
d="M652 0h-671l271 700h132zM423 134l-108 300h-2l-109 -300h219z" />
    <glyph glyph-name="uni2208" unicode="&#x2208;" 
d="M507 0h-134c-115.333 0 -200.833 24.167 -256.5 72.5s-83.5 113.5 -83.5 195.5s27.833 147.167 83.5 195.5s141.167 72.5 256.5 72.5h134v-130h-154c-78 0 -130 -24.333 -156 -73h310v-130h-310c26 -48.667 78 -73 156 -73h154v-130z" />
    <glyph glyph-name="uni2209" unicode="&#x2209;" 
d="M488 631l-27 -95h46v-130h-84l-21 -73h105v-130h-142l-21 -73h163v-130h-134c-23.333 0 -45 1 -65 3l-36 -125l-103 27l34 120c-113.333 39.333 -170 120.333 -170 243c0 79.333 26 142.833 78 190.5s131.667 73.167 239 76.5l35 123zM312 403
c-56 -8.66699 -94.333 -32 -115 -70h95zM197 203c10.667 -18.667 25.333 -34 44 -46l13 46h-57z" />
    <glyph glyph-name="product" unicode="&#x220f;" 
d="M559 452h-86v-452h-156v452h-84v-452h-156v452h-86v128h568v-128z" />
    <glyph glyph-name="summation" unicode="&#x2211;" 
d="M428 365l-180 -231h300v-134h-546v82l228 279l-218 256v83h513v-134h-268z" />
    <glyph glyph-name="minus" unicode="&#x2212;" 
d="M24 379h501v-136h-501v136z" />
    <glyph glyph-name="uni2215" unicode="&#x2215;" horiz-adv-x="421" 
d="M421 718l-289 -780l-132 52l289 780z" />
    <glyph glyph-name="uni2219" unicode="&#x2219;" 
d="M360 233h-171v162h171v-162z" />
    <glyph glyph-name="radical" unicode="&#x221a;" 
d="M576 750l-242 -750h-145l-117 406h-77v130h209l64 -263h2l140 477h166z" />
    <glyph glyph-name="infinity" unicode="&#x221e;" horiz-adv-x="778" 
d="M397 332c32 34.667 61.501 61.166 88.501 79.499s56.167 27.5 87.5 27.5c49.333 0 90.666 -17.833 123.999 -53.5s50 -79.5 50 -131.5c0 -51.333 -16.833 -94.833 -50.5 -130.5s-74.834 -53.5 -123.501 -53.5c-62 0 -126 36 -192 108
c-32.667 -35.333 -62.334 -62.166 -89.001 -80.499s-55.667 -27.5 -87 -27.5c-49.333 0 -90.666 18 -123.999 54s-50 80 -50 132c0 51.333 16.833 94.833 50.5 130.5s74.834 53.5 123.501 53.5c62 0 126 -36 192 -108zM482.001 254.999
c35.333 -35.333 59.001 -53 71.001 -53s21.667 5.33301 29 16s11 23 11 37s-3.66699 26.5 -11 37.5s-17 16.5 -29 16.5c-12.667 0 -36.334 -18 -71.001 -54zM296.002 255.999c-35.333 35.333 -59.001 53 -71.001 53s-21.667 -5.33301 -29 -16s-11 -23 -11 -37
s3.66699 -26.5 11 -37.5s17 -16.5 29 -16.5c12.667 0 36.334 18 71.001 54z" />
    <glyph glyph-name="uni2229" unicode="&#x2229;" 
d="M500 263v-263h-130v298c0 40 -9 70 -27 90s-40.667 30 -68 30s-50 -10 -68 -30s-27 -50 -27 -90v-298h-130v263c0 96 20.333 167.5 61 214.5s95.667 70.5 165 70.5c68.667 0 123.167 -23.5 163.5 -70.5s60.5 -118.5 60.5 -214.5z" />
    <glyph glyph-name="uni222A" unicode="&#x222a;" 
d="M50 273v263h130v-298c0 -40 9 -70 27 -90s40.667 -30 68 -30s50 10 68 30s27 50 27 90v298h130v-263c0 -96 -20.333 -167.5 -61 -214.5s-95.667 -70.5 -165 -70.5c-68.667 0 -123.167 23.5 -163.5 70.5s-60.5 118.5 -60.5 214.5z" />
    <glyph glyph-name="integral" unicode="&#x222b;" 
d="M175 -11l22.999 577.001c3.33301 70.667 21.333 122 54 154c29.333 28 69.333 42 120 42c48.667 0 97.334 -11.333 146.001 -34l-41 -123c-25.333 16 -49 24 -71 24c-15.333 0 -26.666 -4 -33.999 -12c-10 -10.667 -15.333 -32.334 -16 -65.001l-24 -577
c-3.33301 -73.333 -23 -126.333 -59 -159c-28 -24.667 -66.333 -37 -115 -37c-36 0 -78.333 11.333 -127 34l41 123c26.667 -16.667 49 -25 67 -25c11.333 0 19.666 4.33301 24.999 13c5.33301 9.33301 9 31 11 65z" />
    <glyph glyph-name="uni2234" unicode="&#x2234;" 
d="M217 0h-171v162h171v-162zM505 0h-171v162h171v-162zM361 238h-171v162h171v-162z" />
    <glyph glyph-name="approxequal" unicode="&#x2248;" 
d="M441 514l90 -72c-13.333 -34.667 -34.166 -62.834 -62.499 -84.501s-61.166 -32.5 -98.499 -32.5c-26.667 0 -60.167 9.5 -100.5 28.5s-68.5 28.5 -84.5 28.5c-29.333 0 -54.333 -17.667 -75 -53l-90 72c13.333 34.667 34.166 62.834 62.499 84.501
s61.166 32.5 98.499 32.5c26.667 0 60.167 -9.5 100.5 -28.5s68.5 -28.5 84.5 -28.5c29.333 0 54.333 17.667 75 53zM441 298l90 -72c-13.333 -34.667 -34.166 -62.834 -62.499 -84.501s-61.166 -32.5 -98.499 -32.5c-26.667 0 -60.167 9.5 -100.5 28.5
s-68.5 28.5 -84.5 28.5c-29.333 0 -54.333 -17.667 -75 -53l-90 72c13.333 34.667 34.166 62.834 62.499 84.501s61.166 32.5 98.499 32.5c26.667 0 60.167 -9.5 100.5 -28.5s68.5 -28.5 84.5 -28.5c29.333 0 54.333 17.667 75 53z" />
    <glyph glyph-name="notequal" unicode="&#x2260;" 
d="M24 270h146l56 82h-202v126h287l85 125l94 -64l-42 -61h77v-126h-162l-55 -82h217v-126h-303l-81 -120l-94 64l38 56h-61v126z" />
    <glyph glyph-name="lessequal" unicode="&#x2264;" 
d="M7 351v106l535 213v-134l-331 -132l331 -132v-134zM7 126h535v-126h-535v126z" />
    <glyph glyph-name="greaterequal" unicode="&#x2265;" 
d="M542 457v-106l-535 -213v134l331 132l-331 132v134zM7 126h535v-126h-535v126z" />
    <glyph glyph-name="uni2282" unicode="&#x2282;" 
d="M507 0h-134c-115.333 0 -200.833 24.167 -256.5 72.5s-83.5 113.5 -83.5 195.5s27.833 147.167 83.5 195.5s141.167 72.5 256.5 72.5h134v-130h-154c-57.333 0 -100.166 -13 -128.499 -39s-42.5 -59 -42.5 -99s14.167 -73 42.5 -99s71.166 -39 128.499 -39h154v-130z" />
    <glyph glyph-name="uni2283" unicode="&#x2283;" 
d="M177 0h-134v130h154c57.333 0 100.166 13 128.499 39s42.5 59 42.5 99s-14.167 73 -42.5 99s-71.166 39 -128.499 39h-154v130h134c115.333 0 200.833 -24.167 256.5 -72.5s83.5 -113.5 83.5 -195.5s-27.833 -147.167 -83.5 -195.5s-141.167 -72.5 -256.5 -72.5z" />
    <glyph glyph-name="uni2284" unicode="&#x2284;" 
d="M507 536v-130h-84l-79 -276h9h154v-130h-134c-23.333 0 -45 1 -65 3l-36 -125l-103 27l34 120c-113.333 39.333 -170 120.333 -170 243c0 79.333 26 142.833 78 190.5s131.667 73.167 239 76.5l35 123l103 -27l-27 -95h46zM312 403c-44 -6 -76.667 -21.332 -98 -45.999
s-32 -54.334 -32 -89.001c0 -50 19.667 -87.333 59 -112z" />
    <glyph glyph-name="uni2285" unicode="&#x2285;" 
d="M381 631l-35 -120c114 -40 171 -121 171 -243c0 -79.333 -26 -143 -78 -191s-131.667 -73.667 -239 -77l-35 -122l-103 27l27 95h-46v130h83l79 276h-8h-154v130h134c22 0 43.667 -1 65 -3l36 125zM308 379l-70 -246.001c43.333 6 75.833 21.333 97.5 46
s32.5 54.334 32.5 89.001c0 50 -20 87 -60 111z" />
    <glyph glyph-name="uni2286" unicode="&#x2286;" 
d="M507 204h-134c-115.333 0 -200.833 24.167 -256.5 72.5s-83.5 113.5 -83.5 195.5s27.833 147.167 83.5 195.5s141.167 72.5 256.5 72.5h134v-130h-154c-57.333 0 -100.166 -13 -128.499 -39s-42.5 -59 -42.5 -99s14.167 -73 42.5 -99s71.166 -39 128.499 -39h154v-130z
M57 1v130h450v-130h-450z" />
    <glyph glyph-name="uni2287" unicode="&#x2287;" 
d="M177 204h-134v130h154c57.333 0 100.166 13 128.499 39s42.5 59 42.5 99s-14.167 73 -42.5 99s-71.166 39 -128.499 39h-154v130h134c115.333 0 200.833 -24.167 256.5 -72.5s83.5 -113.5 83.5 -195.5s-27.833 -147.167 -83.5 -195.5s-141.167 -72.5 -256.5 -72.5zM43 1
v130h450v-130h-450z" />
    <glyph glyph-name="uni22C4" unicode="&#x22c4;" 
d="M275 -83l-217 333l217 333l217 -333zM196 250l79 -122l79 122l-79 121z" />
    <glyph glyph-name="triangle" unicode="&#x25b3;" horiz-adv-x="398" 
d="M368 286l-308 -175v348z" />
    <glyph glyph-name="lozenge" unicode="&#x25ca;" 
d="M15 350l196 350h127l196 -350l-196 -350h-127zM375 350l-101 183l-100 -183l100 -183z" />
    <glyph glyph-name="circle" unicode="&#x25cb;" horiz-adv-x="366" 
d="M35 289c0 40.667 14.5 75.5 43.5 104.5s63.833 43.5 104.5 43.5s75.5 -14.5 104.5 -43.5s43.5 -63.833 43.5 -104.5s-14.5 -75.5 -43.5 -104.5s-63.833 -43.5 -104.5 -43.5s-75.5 14.5 -104.5 43.5s-43.5 63.833 -43.5 104.5z" />
    <glyph glyph-name="uni25FB" unicode="&#x25fb;" 
d="M86 403h378v-378h-378v378zM208 281v-134h134v134h-134z" />
    <glyph glyph-name="commainferior" unicode="&#xf6e1;" horiz-adv-x="163" 
d="M141 -77l-45 -171h-92l34 171h103z" />
    <glyph glyph-name="commasuperior" unicode="&#xf6e2;" horiz-adv-x="163" 
d="M141 468l-45 -171h-92l34 171h103z" />
    <glyph glyph-name="hypheninferior" unicode="&#xf6e5;" horiz-adv-x="278" 
d="M222 -44h-166v79h166v-79z" />
    <glyph glyph-name="hyphensuperior" unicode="&#xf6e6;" horiz-adv-x="278" 
d="M222 501h-166v79h166v-79z" />
    <glyph glyph-name="periodinferior" unicode="&#xf6e7;" horiz-adv-x="150" 
d="M127 -178h-104v99h104v-99z" />
    <glyph glyph-name="periodsuperior" unicode="&#xf6e8;" horiz-adv-x="150" 
d="M127 367h-104v99h104v-99z" />
    <glyph glyph-name="s_t" unicode="&#xfb06;" horiz-adv-x="884" 
d="M452 473l-86.998 -96.001c-33.333 30.667 -68.333 46 -105 46c-11.333 0 -21.333 -2.66699 -30 -8s-13 -12.333 -13 -21c0 -14 6.5 -25.667 19.5 -35s32.833 -19.666 59.5 -30.999c20.667 -8.66699 35.167 -14.834 43.5 -18.501s21.5 -10.834 39.5 -21.501s31 -21 39 -31
s15.667 -23.333 23 -40s11 -35 11 -55c0 -55.333 -20.667 -98.166 -62 -128.499s-90.666 -45.5 -147.999 -45.5c-84 0 -159.667 31.667 -227 95l88 96c24 -23.333 45.333 -40.166 64 -50.499s40.667 -15.5 66 -15.5c13.333 0 26.333 3 39 9s19 14.667 19 26
c0 4.66699 -0.833008 9.16699 -2.5 13.5s-4.5 8.5 -8.5 12.5s-7.83301 7.5 -11.5 10.5s-9.16699 6.33301 -16.5 10l-18 9c-4.66699 2.33301 -11.834 5.66602 -21.501 9.99902s-16.834 7.5 -21.501 9.5c-18.667 8.66699 -34.334 16.834 -47.001 24.501s-26 17.667 -40 30
s-24.5 27.333 -31.5 45s-10.5 37.5 -10.5 59.5c0 52 19.5 92.667 58.5 122s85.5 44 139.5 44c76 0 140 -25 192 -75zM858.002 403.999h-132v-196c0 -21.333 1 -37.333 3 -48c4.66699 -24 17 -36 37 -36s39.333 5 58 15l51 -118c-38 -22 -84 -33 -138 -33
c-43.333 0 -79.5 11.167 -108.5 33.5s-48.167 52.833 -57.5 91.5c-4.66699 20 -7 47.667 -7 83v208h-61v132h61l30 115h132v-115h132v-132z" />
    <glyph glyph-name="nonmarkingreturn" horiz-adv-x="333" 
 />
    <glyph glyph-name="M.salt" horiz-adv-x="851" 
d="M476 136h-102l-145 293v-429h-158v700h190l164 -341h2l164 341h189v-700h-158v434z" />
    <glyph glyph-name="trademark.salt" horiz-adv-x="881" 
d="M410 700h129l93 -193l93 193h128v-434h-111v235l-75 -153h-72l-74 149v-231h-111v434zM368 608h-97v-342h-114v342h-97v92h308v-92z" />
    <glyph glyph-name="hyphen.case" horiz-adv-x="442" 
d="M367 283h-292v132h292v-132z" />
    <glyph glyph-name="zero.lf" horiz-adv-x="566" 
d="M283 676c80.667 0 143 -30.333 187 -91s66 -145 66 -253s-22 -192.333 -66 -253s-106.333 -91 -187 -91s-143 30.333 -187 91s-66 145 -66 253s22 192.333 66 253s106.333 91 187 91zM283 542c-60.667 0 -91 -70 -91 -210s30.333 -210 91 -210s91 70 91 210
s-30.333 210 -91 210z" />
    <glyph glyph-name="one.lf" horiz-adv-x="364" 
d="M293 0h-160v483c-12 -6 -42.667 -19.333 -92 -40v143c56 28 105 54 147 78h105v-664z" />
    <glyph glyph-name="two.lf" horiz-adv-x="530" 
d="M508 132l-0.00195312 -131.999h-455v113c84 86 158 174.333 222 265c29.333 42 44 77.667 44 107c0 18 -5.33301 32.333 -16 43s-25.334 16 -44.001 16c-43.333 0 -65 -30 -65 -90l-159 24c4.66699 59.333 28.334 107.166 71.001 143.499s94.334 54.5 155.001 54.5
c60 0 111.667 -16.667 155 -50s65 -79.333 65 -138c0 -60.667 -22.667 -122.667 -68 -186c-13.333 -18 -27.666 -36.167 -42.999 -54.5s-34.833 -40.5 -58.5 -66.5s-38.5 -42.333 -44.5 -49h241z" />
    <glyph glyph-name="three.lf" horiz-adv-x="543" 
d="M185 275l0.00292969 122.002c26 -1.33301 49.667 1 71 7c40.667 10.667 61 34.667 61 72c0 18.667 -6.33301 34.334 -19 47.001s-30.667 19 -54 19c-18.667 0 -34.334 -5.83301 -47.001 -17.5s-20.334 -27.834 -23.001 -48.501l-134 60c13.333 45.333 38.833 80 76.5 104
s80.167 36 127.5 36c60.667 0 114.667 -16.5 162 -49.5s71 -75.833 71 -128.5c0 -28 -7.5 -55 -22.5 -81s-34.833 -46.333 -59.5 -61c33.333 -12.667 59.833 -33.834 79.5 -63.501s29.5 -62.834 29.5 -99.501c0 -62.667 -23.5 -112.5 -70.5 -149.5
s-105.167 -55.5 -174.5 -55.5c-51.333 0 -98.333 13.167 -141 39.5s-73.334 63.833 -92.001 112.5l135 61c18 -52.667 52 -79 102 -79c21.333 0 39.833 6.5 55.5 19.5s23.5 30.5 23.5 52.5c0 56.667 -38 85 -114 85c-16 0 -30.333 -1.33301 -43 -4z" />
    <glyph glyph-name="four.lf" horiz-adv-x="559" 
d="M452 0h-157.999v161h-274v127c65.333 84.667 156.666 210 273.999 376h158v-373h91v-130h-91v-161zM189.001 291h104.999v170c-5.33301 -8.66699 -21.666 -36 -48.999 -82s-46 -75.333 -56 -88z" />
    <glyph glyph-name="five.lf" horiz-adv-x="522" 
d="M468 664l0.000976562 -132h-222c-1.33301 -31.333 -4.33301 -71.333 -9 -120c23.333 10 46.333 15 69 15c55.333 0 100.666 -20.167 135.999 -60.5s53 -87.833 53 -142.5c0 -68.667 -23 -125.167 -69 -169.5s-103 -66.5 -171 -66.5c-108 0 -185 46.667 -231 140l136 67
c16.667 -48.667 48.334 -73 95.001 -73c23.333 0 42.166 8.83301 56.499 26.5s21.5 38.5 21.5 62.5c0 24.667 -7.16699 45.167 -21.5 61.5s-33.833 24.5 -58.5 24.5c-32 0 -58 -13.667 -78 -41l-101 76c12 124 19 234.667 21 332h373z" />
    <glyph glyph-name="six.lf" horiz-adv-x="563" 
d="M392 711l54.001 -121c-115.333 -48 -190.666 -109.333 -225.999 -184c27.333 20 59.666 30 96.999 30c61.333 0 112.666 -20.333 153.999 -61s62 -90.334 62 -149.001c0 -66.667 -22.167 -123 -66.5 -169s-101.833 -69 -172.5 -69c-80 0 -144 26.833 -192 80.5
s-72 119.167 -72 196.5c0 102.667 33.667 191.834 101 267.501s154.333 135.167 261 178.5zM190.001 261c-6 -38.667 0.000976562 -72.167 18.001 -100.5s44.667 -42.5 80 -42.5c25.333 0 45.833 9.33301 61.5 28s23.5 40.667 23.5 66c0 31.333 -9.16699 55.333 -27.5 72
s-40.5 25 -66.5 25c-38.667 0 -68.334 -16 -89.001 -48z" />
    <glyph glyph-name="seven.lf" horiz-adv-x="487" 
d="M472 664l-0.00195312 -96.001c-106 -221.333 -196.667 -422.333 -272 -603l-142 65c26.667 62 54.834 124.833 84.501 188.5s59.834 126.334 90.501 188.001s51 103.5 61 125.5h-284v132h462z" />
    <glyph glyph-name="eight.lf" horiz-adv-x="564" 
d="M426 349c33.333 -20 57.668 -42 73.001 -66s23 -55.333 23 -94c0 -56.667 -22.5 -104.334 -67.5 -143.001s-102.5 -58 -172.5 -58s-127.5 19.333 -172.5 58s-67.5 86.334 -67.5 143.001c0 38.667 7.66699 70 23 94s39.666 46 72.999 66c-50.667 32 -76 79 -76 141
c0 52.667 20.5 96.834 61.5 132.501s93.5 53.5 157.5 53.5c64.667 0 117.667 -17.833 159 -53.5s62 -79.834 62 -132.501c0 -62 -25.333 -109 -76 -141zM282.002 281c-23.333 0 -42.5 -7.66699 -57.5 -23s-22.5 -34.666 -22.5 -57.999s7.5 -42.833 22.5 -58.5
s34.167 -23.5 57.5 -23.5s42.5 7.83301 57.5 23.5s22.5 35.167 22.5 58.5s-7.5 42.666 -22.5 57.999s-34.167 23 -57.5 23zM282.002 546c-20 0 -36 -6.33301 -48 -19s-18 -29 -18 -49s6 -36.5 18 -49.5s28 -19.5 48 -19.5s36 6.5 48 19.5s18 29.5 18 49.5s-6 36.333 -18 49
s-28 19 -48 19z" />
    <glyph glyph-name="nine.lf" horiz-adv-x="563" 
d="M171 -47l-54.001 121c115.333 48 190.666 109.333 225.999 184c-27.333 -20 -59.666 -30 -96.999 -30c-61.333 0 -112.666 20.333 -153.999 61s-62 90.334 -62 149.001c0 66.667 22.167 123 66.5 169s101.833 69 172.5 69c80 0 144 -26.833 192 -80.5
s72 -119.167 72 -196.5c0 -102.667 -33.667 -191.834 -101 -267.501s-154.333 -135.167 -261 -178.5zM372.999 403c6 38.667 -0.000976562 72.167 -18.001 100.5s-44.667 42.5 -80 42.5c-25.333 0 -45.833 -9.33301 -61.5 -28s-23.5 -40.667 -23.5 -66
c0 -31.333 9.16699 -55.333 27.5 -72s40.5 -25 66.5 -25c38.667 0 68.334 16 89.001 48z" />
    <glyph glyph-name="dollar.lf" 
d="M1 106l99.9971 97.001c19.333 -17.333 34.166 -30.333 44.499 -39s26 -18.167 47 -28.5s41.5 -15.5 61.5 -15.5c71.333 0 107 24.667 107 74c0 8 -1.33301 15.333 -4 22s-7.16699 12.834 -13.5 18.501s-12.666 10.5 -18.999 14.5s-15 8.33301 -26 13
s-20.333 8.5 -28 11.5s-18.5 7 -32.5 12s-25 8.83301 -33 11.5c-48 18 -86 40.333 -114 67s-42 64.334 -42 113.001c0 59.333 17.5 105.666 52.5 138.999s81.167 52.666 138.5 57.999v96h90v-98c59.333 -9.33301 118 -35.333 176 -78l-87 -108c-52 40.667 -100 61 -144 61
c-18.667 0 -35.167 -5.5 -49.5 -16.5s-21.5 -25.833 -21.5 -44.5c0 -8 2.66699 -15.333 8 -22s13.833 -13 25.5 -19s22.834 -11 33.501 -15s25.334 -9.16699 44.001 -15.5s34 -11.833 46 -16.5c49.333 -18.667 89 -42.834 119 -72.501s45 -70.5 45 -122.5
c0 -58 -19.167 -104.667 -57.5 -140s-86.5 -58 -144.5 -68v-101h-90v97c-83.333 6 -160.666 44.333 -231.999 115z" />
    <glyph glyph-name="Euro.lf" horiz-adv-x="650" 
d="M15 358l0.00195312 102.001h84c18 48.667 46.667 90.167 86 124.5s79.166 58.5 119.499 72.5s79.166 21 116.499 21c69.333 0 143 -23 221 -69l-69 -114c-45.333 38.667 -93.333 58 -144 58c-72 0 -127 -31 -165 -93h222v-102h-255c-0.666992 -6 -1 -14.667 -1 -26
c0 -14 0.333008 -24 1 -30h255v-101h-226c34 -58.667 90 -88 168 -88c56 0 104 20 144 60l82 -104c-70.667 -54 -150 -81 -238 -81c-29.333 0 -59.166 4 -89.499 12s-60.333 20 -90 36s-56.834 38.167 -81.501 66.5s-43.667 61.166 -57 98.499h-83v101h63
c-0.666992 6.66699 -1 16.667 -1 30c0 11.333 0.333008 20 1 26h-63z" />
    <glyph glyph-name="cent.lf" 
d="M433 195l88 -107.001c-40.667 -37.333 -90 -60 -148 -68v-90h-92v89c-70 8.66699 -126.333 38.334 -169 89.001s-64 113.667 -64 189c0 72 21.333 133.833 64 185.5s99 82.167 169 91.5v92h92v-93c55.333 -8 105.666 -31 150.999 -69l-84 -109c-32 30.667 -66 46 -102 46
c-37.333 0 -67.666 -14 -90.999 -42s-35 -62 -35 -102s11.667 -74 35 -102s52.333 -42 87 -42c38.667 0 71.667 14 99 42z" />
    <glyph glyph-name="sterling.lf" 
d="M517 0h-447.999v134h53v157h-53v134h53v21c0 67.333 21 122.833 63 166.5s95.333 65.5 160 65.5c61.333 0 121 -17.667 179 -53l-61 -119c-32.667 25.333 -65.334 38 -98.001 38c-25.333 0 -46 -8.66699 -62 -26s-24 -43 -24 -77v-16h125v-134h-125v-157h238v-134z" />
    <glyph glyph-name="yen.lf" 
d="M36 257v102h118l-171 307h179l116 -211h2l108 211h179l-175 -307h118v-102h-159v-52h159v-101h-159v-104h-157v104h-158v101h158v52h-158z" />
    <glyph glyph-name="florin.lf" 
d="M124 5l32.001 286h-70v133h85l9 77c6.66699 56 26.334 99.5 59.001 130.5s75.334 46.5 128.001 46.5c52 0 105.333 -12.667 160 -38l-50 -124c-32 20 -62.667 30 -92 30c-12.667 0 -22.5 -3.66699 -29.5 -11s-11.5 -15 -13.5 -23s-4 -19.333 -6 -34l-6 -54h109v-133h-124
l-35 -309c-6.66699 -56 -26.334 -99.5 -59.001 -130.5s-75.334 -46.5 -128.001 -46.5c-34.667 0 -68.334 5 -101.001 15l32 126c16 -6 33 -9 51 -9c12.667 0 22.5 3.66699 29.5 11s11.5 15 13.5 23s4 19.333 6 34z" />
    <glyph glyph-name="afii61352.lf" horiz-adv-x="1147" 
d="M675 0h-146l-296 406v-406h-162v700h143l299 -408v408h162v-700zM940 734c54.667 0 99.334 -16.833 134.001 -50.5s52 -76.167 52 -127.5s-17.333 -93.833 -52 -127.5s-79.334 -50.5 -134.001 -50.5s-99.334 16.833 -134.001 50.5s-52 76.167 -52 127.5
s17.333 93.833 52 127.5s79.334 50.5 134.001 50.5zM1008 556c0 26.667 -6.16699 48.5 -18.5 65.5s-28.833 25.5 -49.5 25.5s-37.167 -8.5 -49.5 -25.5s-18.5 -38.833 -18.5 -65.5s6.16699 -48.5 18.5 -65.5s28.833 -25.5 49.5 -25.5s37.167 8.5 49.5 25.5
s18.5 38.833 18.5 65.5z" />
    <glyph glyph-name="percent.lf" horiz-adv-x="858" 
d="M227 706c50 0 93 -16.5 129 -49.5s54 -74.833 54 -125.5s-18 -92.5 -54 -125.5s-79 -49.5 -129 -49.5s-93 16.5 -129 49.5s-54 74.833 -54 125.5s18 92.5 54 125.5s79 49.5 129 49.5zM227 595c-16.667 0 -30.334 -6 -41.001 -18s-16 -27.333 -16 -46s5.33301 -34 16 -46
s24.334 -18 41.001 -18s30.334 6 41.001 18s16 27.333 16 46s-5.33301 34 -16 46s-24.334 18 -41.001 18zM631 344c50 0 93 -16.5 129 -49.5s54 -74.833 54 -125.5s-18 -92.5 -54 -125.5s-79 -49.5 -129 -49.5s-93 16.5 -129 49.5s-54 74.833 -54 125.5s18 92.5 54 125.5
s79 49.5 129 49.5zM631 233c-16.667 0 -30.334 -6 -41.001 -18s-16 -27.333 -16 -46s5.33301 -34 16 -46s24.334 -18 41.001 -18s30.334 6 41.001 18s16 27.333 16 46s-5.33301 34 -16 46s-24.334 18 -41.001 18zM640 720l77 -57l-499 -683l-77 57z" />
    <glyph glyph-name="perthousand.lf" horiz-adv-x="1252" 
d="M1025 344c50 0 93 -16.5 129 -49.5s54 -74.833 54 -125.5s-18 -92.5 -54 -125.5s-79 -49.5 -129 -49.5s-93 16.5 -129 49.5s-54 74.833 -54 125.5s18 92.5 54 125.5s79 49.5 129 49.5zM1025 233c-16.667 0 -30.334 -6 -41.001 -18s-16 -27.333 -16 -46
s5.33301 -34 16 -46s24.334 -18 41.001 -18s30.334 6 41.001 18s16 27.333 16 46s-5.33301 34 -16 46s-24.334 18 -41.001 18zM227 706c50 0 93 -16.5 129 -49.5s54 -74.833 54 -125.5s-18 -92.5 -54 -125.5s-79 -49.5 -129 -49.5s-93 16.5 -129 49.5s-54 74.833 -54 125.5
s18 92.5 54 125.5s79 49.5 129 49.5zM227 595c-16.667 0 -30.334 -6 -41.001 -18s-16 -27.333 -16 -46s5.33301 -34 16 -46s24.334 -18 41.001 -18s30.334 6 41.001 18s16 27.333 16 46s-5.33301 34 -16 46s-24.334 18 -41.001 18zM631 344c50 0 93 -16.5 129 -49.5
s54 -74.833 54 -125.5s-18 -92.5 -54 -125.5s-79 -49.5 -129 -49.5s-93 16.5 -129 49.5s-54 74.833 -54 125.5s18 92.5 54 125.5s79 49.5 129 49.5zM631 233c-16.667 0 -30.334 -6 -41.001 -18s-16 -27.333 -16 -46s5.33301 -34 16 -46s24.334 -18 41.001 -18
s30.334 6 41.001 18s16 27.333 16 46s-5.33301 34 -16 46s-24.334 18 -41.001 18zM640 720l77 -57l-499 -683l-77 57z" />
    </font>
</defs>
</svg>
